imdb
rating

5.6
Girl in Progress

Girl in Progress (2012)

Comedy, Drama, Foreign

Full description

Girl in Progress 2012 DVDRip English [Accipiter]

Size 728.138 MB   1 seeders     Added 2012-12-09 04:00:45

Stream torrent
Starting‥ You need BitLord! Get it from BitLord.com
To download or stream you need BitLord. Visit them at BitLord.com
[img]image[/img]

[b]Cover:[/b]

[img]image[/img]

[b]Release info:[/b]

[code]General
Format : Matroska
Format version : Version 2
File size : 694 MiB
Duration : 1h 33mn
Overall bit rate mode : Variable
Overall bit rate : 1 044 Kbps


Video
ID : 1
Format : MPEG-4 Visual
Format profile : Advanced Simple@L5
Format settings, BVOP : Yes
Format settings, QPel : No
Format settings, GMC : No warppoints
Format settings, Matrix : Default (H.263)
Codec ID : V_MS/VFW/FOURCC / XVID
Codec ID/Hint : XviD
Duration : 1h 33mn
Bit rate : 895 Kbps
Width : 640 pixels
Height : 272 pixels
Display aspect ratio : 2.35:1
Frame rate mode : Constant
Frame rate : 23.976 fps
Color space : YUV
Chroma subsampling : 4:2:0
Bit depth : 8 bits
Scan type : Progressive
Compression mode : Lossy
Bits/(Pixel*Frame) : 0.214
Stream size : 595 MiB (86%)
Writing library : XviD 61
Language : English
Default : Yes
Forced : No

Audio
ID : 2
Format : MPEG Audio
Format version : Version 1
Format profile : Layer 3
Mode : Joint stereo
Mode extension : MS Stereo
Muxing mode : Header stripping
Codec ID : A_MPEG/L3
Codec ID/Hint : MP3
Duration : 1h 33mn
Bit rate mode : Variable
Bit rate : 128 Kbps
Channel(s) : 2 channels
Sampling rate : 48.0 KHz
Compression mode : Lossy
Stream size : 85.5 MiB (12%)
Language : English
Default : Yes
Forced : No

Source:
credit to original movie ripper (Thanks)[/code]

[b]IMDB Info:[/b]

[code]As single mom Grace juggles work, bills, and her affair with a married doctor, her daughter, Ansiedad, plots a shortcut to adulthood after finding inspiration in the coming-of-age stories she's reading for school.

Director: Patricia Riggen
Writer: Hiram Martinez (screenplay)
Stars: Eva Mendes, Cierra Ramirez and Patricia Arquette 

Genres: Comedy | Drama[/code]

http://www.imdb.com/title/tt1817676/

[b]Screen Shot:[/b]

[img]image[/img]
[img]image[/img]
[img]image[/img]
[img]image[/img]
[img]image[/img]
[img]image[/img]
[img]image[/img]
[img]image[/img]
Girl in Progress 2012 DVDRip English [Accipiter].mkv 728.138 MB
Torrent Downloaded From Digtorrent.org.txt 346 B
Torrent downloaded from souravfile torrents on BTScene.eu.txt 69 B
Gathering some info...

Register and log in Isohunt and see no captcha anymore!

4000 symbols left
Hash 4E997DF6AFBD27441C18CE2347128BBB87F437E7

Related torrents for "Girl in Progress 2012 DVDRip English [Accipiter]"

Torrent search:

dvdrip english 2012