imdb
rating

6.2
Killing Them Softly

Killing Them Softly (2012)

Crime, Thriller

Full description
quality   dvdrip dvd screener bd

Killing Them Softly 2012 DVDRiP XViD PSiG Verified

Size 719.65 MB   0 seeders     Added 2012-12-09 07:07:19

Stream torrent
Starting‥ You need BitLord! Get it from 1BitLord.com
To download or stream you need BitLord. Visit them at BitLord.com
\r\n\r\n\r\n\r\n\r\n\r\n\r\n\r\n\r\n\r\nVideo\r\nID                                       : 1\r\nFormat                                   : AVC\r\nFormat/Info                              : Advanced Video Codec\r\nFormat profile                           : Main@L2.1\r\nFormat settings, CABAC                   : Yes\r\nFormat settings, ReFrames                : 4 frames\r\nCodec ID                                 : avc1\r\nCodec ID/Info                            : Advanced Video Coding\r\nDuration                                 : 2h 44mn\r\nBit rate mode                            : Variable\r\nBit rate                                 : 165 Kbps\r\nWidth                                    : 600 pixels\r\nHeight                                   : 248 pixels\r\nDisplay aspect ratio                     : 2.40:1\r\nFrame rate mode                          : Variable\r\nFrame rate                               : 23.976 fps\r\nMinimum frame rate                       : 23.974 fps\r\nMaximum frame rate                       : 23.981 fps\r\nColor space                              : YUV\r\nChroma subsampling                       : 4:2:0\r\nBit depth                                : 8 bits\r\nScan type                                : Progressive\r\nBits/(Pixel*Frame)                       : 0.046\r\nStream size                              : 595 MiB (55%)\r\nWriting library                          : x264 \r\n\r\nAudio\r\nID                                       : 2\r\nFormat                                   : AAC\r\nFormat/Info                              : Advanced Audio Codec\r\nFormat profile                           : LC\r\nCodec ID                                 : 40\r\nDuration                                 : 2h 44mn\r\nBit rate mode                            : Variable\r\nBit rate                                 : 128 Kbps\r\nMaximum bit rate                         : 151 Kbps\r\nChannel(s)                               : 2 channels\r\nChannel positions                        : Front: L R\r\nSampling rate                            : 48.0 KHz\r\nCompression mode                         : Lossy\r\nDelay relative to video                  : 83ms\r\nStream size                              : 151 MiB (43%)\r\nEncoded date                             : UTC 2012-11-20 19:20:07\r\nTagged date                              : UTC 2012-11-20 19:57:06[/code]\r\n\r\n\r\n
Killing Them Softly 2012 DVDRiP XViD PSiG/info.nfo 5.215 KB
Killing Them Softly 2012 DVDRiP XViD PSiG/Killing Them Softly 2012 DVDRiP XViD PSiG.wmv 719.489 MB
Killing Them Softly 2012 DVDRiP XViD PSiG/READ this before playing the Video.txt 5.215 KB
Gathering some info...

Register and log in Isohunt and see no captcha anymore!

4000 symbols left
Hash ad826a56cf9096126449c98d1638cbfb535581af

Related torrents for "Killing Them Softly 2012 DVDRiP XViD PSiG"

Torrent search:

dvdrip 2012