Carols of the Mormon Tabernacle Choir / DVDrip [x264-AC3/2CH-MP

Size 443.369 MB   0 seeders     Added 2012-12-09 09:53:59

Stream torrent
Starting‚Ä• You need BitLord! Get it from 1BitLord.com
To download or stream you need BitLord. Visit them at BitLord.com
A 30 minute performance by the Mormon Tabernacle Choir.


Video
ID                                       : 1
Format                                   : AVC
Format/Info                              : Advanced Video Codec
Format profile                           : Main@L3.0
Format settings, CABAC                   : Yes
Format settings, ReFrames                : 4 frames
Codec ID                                 : avc1
Codec ID/Info                            : Advanced Video Coding
Duration                                 : 26mn 49s
Bit rate mode                            : Variable
Bit rate                                 : 1 976 Kbps
Width                                    : 720 pixels
Height                                   : 480 pixels
Display aspect ratio                     : 16:9
Original display aspect ratio            : 16:9
Frame rate mode                          : Constant
Frame rate                               : 29.970 fps
Standard                                 : NTSC
Color space                              : YUV
Chroma subsampling                       : 4:2:0
Bit depth                                : 8 bits
Scan type                                : Progressive
Bits/(Pixel*Frame)                       : 0.191
Stream size                              : 379 MiB (90%)
Writing library                          : x264 core 120


Audio
ID                                       : 2
Format                                   : AC-3
Format/Info                              : Audio Coding 3
Mode extension                           : CM (complete main)
Format settings, Endianness              : Big
Codec ID                                 : ac-3
Duration                                 : 26mn 49s
Bit rate mode                            : Constant
Bit rate                                 : 224 Kbps
Channel(s)                               : 2 channels
Channel positions                        : Front: L R
Sampling rate                            : 48.0 KHz
Bit depth                                : 16 bits
Compression mode                         : Lossy
Delay relative to video                  : 67ms
Stream size                              : 43.0 MiB (10%)
Language                                 : English
Encoded date                             : UTC 2012-12-05 11:17:17
Tagged date                              : UTC 2012-12-05 11:45:18		
God So Loved The World - Carols of the Mormon Tabernacle Choir.mp4 443.369 MB
Gathering some info...

Register and log in Isohunt and see no captcha anymore!

4000 symbols left
Hash DCB7B46505FF5D21A474B5DC5B7F8F78F12047FB

We have tons of cool stuff like this:

Torrent search:

dvdrip x264