imdb
rating

7.6
Haven

Haven (2010)

Drama, Fantasy

Full description

Haven S03E11 720p WEB-DL DD5 1 H 264-ECI

Size 1.423 GB   0 seeders     Added 2012-12-09 12:42:31

Stream torrent
Starting‥ You need BitLord! Get it from BitLord.com
To download or stream you need BitLord. Visit them at BitLord.com
- 
http://www.Speed.Cd
 
http://www.Speed.Cd       the fast  and The Hottest Private Tracker on the net

Please Seed back to make the speed Faster!!
 ............ NFO .............
-General
Unique ID                                : 217351537689307539428864998122085012439 (0xA384622C5D3FE44F8FF907B7D751D3D7)
Complete name                            : Haven.S03E11.Last.Goodbyes.720p.WEB-DL.DD5.1.H.264-ECI.mkv
Format                                   : Matroska
Format version                           : Version 2
File size                                : 1.33 GiB
Duration                                 : 42mn 58s
Overall bit rate                         : 4 415 Kbps
Encoded date                             : UTC 2012-12-08 11:14:43
Writing application                      : mkvmerge v5.8.0 ('No Sleep / Pillow') built on Sep  2 2012 15:37:04
Writing library                          : libebml v1.2.3 + libmatroska v1.3.0

Video
ID                                       : 1
Format                                   : AVC
Format/Info                              : Advanced Video Codec
Format profile                           : High@L3.1
Format settings, CABAC                   : No
Format settings, ReFrames                : 2 frames
Codec ID                                 : V_MPEG4/ISO/AVC
Duration                                 : 42mn 58s
Bit rate                                 : 3 943 Kbps
Width                                    : 1 280 pixels
Height                                   : 718 pixels
Display aspect ratio                     : 16:9
Frame rate mode                          : Constant
Frame rate                               : 23.976 fps
Color space                              : YUV
Chroma subsampling                       : 4:2:0
Bit depth                                : 8 bits
Scan type                                : Progressive
Bits/(Pixel*Frame)                       : 0.179
Stream size                              : 1.18 GiB (89%)
Language                                 : English
Default                                  : Yes
Forced                                   : No
Color primaries                          : BT.709
Transfer characteristics                 : BT.709
Matrix coefficients                      : BT.709

Audio
ID                                       : 2
Format                                   : AC-3
Format/Info                              : Audio Coding 3
Mode extension                           : CM (complete main)
Format settings, Endianness              : Big
Codec ID                                 : A_AC3
Duration                                 : 42mn 58s
Bit rate mode                            : Constant
Bit rate                                 : 384 Kbps
Channel(s)                               : 6 channels
Channel positions                        : Front: L C R, Side: L R, LFE
Sampling rate                            : 48.0 KHz
Bit depth                                : 16 bits
Compression mode                         : Lossy
Stream size                              : 118 MiB (9%)
Language                                 : English
Default                                  : Yes
Forced                                   : No
Haven.S03E11.Last.Goodbyes.720p.WEB-DL.DD5.1.H.264-ECI.mkv 1.423 GB
Haven.S03E11.Last.Goodbyes.720p.WEB-DL.DD5.1.H.264-ECI.nfo 3.106 KB
www.Speed.Cd read me .txt 47 B
Gathering some info...

Register and log in Isohunt and see no captcha anymore!

4000 symbols left
Hash 1B4775D44538EE3B0BE1BBA04D1E18596B9A5B8B

Related torrents for "Haven S03E11 720p WEB-DL DD5 1 H 264-ECI"

Torrent search:

season 03 episode 11 hd web-dl