imdb
rating

7.9
Elementary

Elementary (2012)

Drama, Mystery, Crime

Full description

Elementary S01E08 720p WEB-DL DD5 1 H 264-ECI

Size 1.463 GB   1 seeders     Added 2012-12-09 12:42:56

Stream torrent
Starting‥ You need BitLord! Get it from BitLord.com
To download or stream you need BitLord. Visit them at BitLord.com
- 
http://www.Speed.Cd
 
http://www.Speed.Cd       the fast  and The Hottest Private Tracker on the net

Please Seed back to make the speed Faster!!
 ............ NFO .............
-General
Unique ID                                : 170728339603858368919200428080407012783 (0x807115086DB0E65C8C8431CBB7A865AF)
Complete name                            : Elementary.S01E08.The.Long.Fuse.720p.WEB-DL.DD5.1.H.264-ECI.mkv
Format                                   : Matroska
Format version                           : Version 2
File size                                : 1.36 GiB
Duration                                 : 43mn 19s
Overall bit rate                         : 4 501 Kbps
Encoded date                             : UTC 2012-11-30 13:54:32
Writing application                      : mkvmerge v5.8.0 ('No Sleep / Pillow') built on Sep  2 2012 15:37:04
Writing library                          : libebml v1.2.3 + libmatroska v1.3.0

Video
ID                                       : 1
Format                                   : AVC
Format/Info                              : Advanced Video Codec
Format profile                           : High@L3.1
Format settings, CABAC                   : No
Format settings, ReFrames                : 2 frames
Codec ID                                 : V_MPEG4/ISO/AVC
Duration                                 : 43mn 19s
Bit rate                                 : 4 028 Kbps
Width                                    : 1 280 pixels
Height                                   : 720 pixels
Display aspect ratio                     : 16:9
Frame rate mode                          : Constant
Frame rate                               : 23.976 fps
Color space                              : YUV
Chroma subsampling                       : 4:2:0
Bit depth                                : 8 bits
Scan type                                : Progressive
Bits/(Pixel*Frame)                       : 0.182
Stream size                              : 1.22 GiB (89%)
Language                                 : English
Default                                  : Yes
Forced                                   : No
Color primaries                          : BT.709
Transfer characteristics                 : BT.709
Matrix coefficients                      : BT.709

Audio
ID                                       : 2
Format                                   : AC-3
Format/Info                              : Audio Coding 3
Mode extension                           : CM (complete main)
Format settings, Endianness              : Big
Codec ID                                 : A_AC3
Duration                                 : 43mn 19s
Bit rate mode                            : Constant
Bit rate                                 : 384 Kbps
Channel(s)                               : 6 channels
Channel positions                        : Front: L C R, Side: L R, LFE
Sampling rate                            : 48.0 KHz
Bit depth                                : 16 bits
Compression mode                         : Lossy
Stream size                              : 119 MiB (9%)
Language                                 : English
Default                                  : Yes
Forced                                   : No		
Elementary.S01E08.The.Long.Fuse.720p.WEB-DL.DD5.1.H.264-ECI.mkv 1.463 GB
Elementary.S01E08.The.Long.Fuse.720p.WEB-DL.DD5.1.H.264-ECI.nfo 3.111 KB
www.Speed.Cd read me .txt 47 B
Gathering some info...

Register and log in Isohunt and see no captcha anymore!

4000 symbols left
Hash 12B9F218BC4DB41D29C066A88733802B750EBE35

Related torrents for "Elementary S01E08 720p WEB-DL DD5 1 H 264-ECI"

Torrent search:

season 01 episode 08 hd web-dl