imdb
rating

5.5
Price Check

Price Check (2012)

Comedy

Full description
quality   dvdrip cam dvdr x264 hd bd

Price Check 2012 DvdRip Xvid AC3 SuReNo

Size 745.15 MB   0 seeders     Added 2012-12-09 16:36:54

Stream torrent
Starting‥ You need BitLord! Get it from 1BitLord.com
To download or stream you need BitLord. Visit them at BitLord.com
Price Check 2012 DvdRip Xvid AC3 SuReNo


Video
ID                                       : 1
Format                                   : AVC
Format/Info                              : Advanced Video Codec
Format profile                           : Main@L2.1
Format settings, CABAC                   : Yes
Format settings, ReFrames                : 4 frames
Codec ID                                 : avc1
Codec ID/Info                            : Advanced Video Coding
Duration                                 : 2h 44mn
Bit rate mode                            : Variable
Bit rate                                 : 165 Kbps
Width                                    : 600 pixels
Height                                   : 248 pixels
Display aspect ratio                     : 2.40:1
Frame rate mode                          : Variable
Frame rate                               : 23.976 fps
Minimum frame rate                       : 23.974 fps
Maximum frame rate                       : 23.981 fps
Color space                              : YUV
Chroma subsampling                       : 4:2:0
Bit depth                                : 8 bits
Scan type                                : Progressive
Bits/(Pixel*Frame)                       : 0.046
Stream size                              : 595 MiB (55%)
Writing library                          : x264 

Audio
ID                                       : 2
Format                                   : AAC
Format/Info                              : Advanced Audio Codec
Format profile                           : LC
Codec ID                                 : 40
Duration                                 : 2h 44mn
Bit rate mode                            : Variable
Bit rate                                 : 128 Kbps
Maximum bit rate                         : 151 Kbps
Channel(s)                               : 2 channels
Channel positions                        : Front: L R
Sampling rate                            : 48.0 KHz
Compression mode                         : Lossy
Delay relative to video                  : 83ms
Stream size                              : 151 MiB (43%)
Encoded date                             : UTC 2012-11-20 19:20:07
Tagged date                              : UTC 2012-11-20 19:57:06[/code]


		
Info.nfo 5.215 KB
Price Check 2012_DvdRip_Xvid_AC3_SuReNo.wmv 744.989 MB
READ this before playing the Video.txt 5.748 KB
Gathering some info...

Register and log in Isohunt and see no captcha anymore!

4000 symbols left
Hash B560011563AEB9C3CDC57BF302D5353237EC8E89

Related torrents for "Price Check 2012 DvdRip Xvid AC3 SuReNo"

Torrent search:

dvdrip 2012