Friends (Seasons 1-3) (1994-1997) BDRip 720p AC3 5.1 Eng + Eng sub + Commentary

Size 75.052 GB   0 seeders     Added 2012-12-10 01:21:34

Stream torrent
Starting‚Ä• You need BitLord! Get it from 1BitLord.com
To download or stream you need BitLord. Visit them at BitLord.com
Format: Matroska 
Format version: Version 2 
File size: 1 013 MiB 
Duration: 22mn 49s 
Overall bit rate: 6 207 Kbps 

Video 
ID: 1 
Format: AVC 
Format / Info: Advanced Video Codec 
Format profile: High@L4.1 
Format settings, CABAC: Yes 
Format settings, ReFrames: 7 frames 
Codec ID: V_MPEG4/ISO/AVC 
Duration: 22mn 49s 
Bit rate: 5 200 Kbps 
Width: 1 280 pixels 
Height: 720 pixels 
Display aspect ratio: 16:9 
Frame rate: 23.976 fps 
Color space: YUV 
Chroma subsampling: 4:2:0 
Bit depth: 8 bits 
Scan type: Progressive 
Bits / (Pixel * Frame): 0.235 
Stream size: 826 MiB (82%) 
Title: BDRip by Tenax, Hurtom 
Writing library: x264 core 125 r2200 999b753 
Language: English 
Default: Yes 
Forced: No 

Audio # 1 
ID: 2 
Format: AC-3 
Format / Info: Audio Coding 3 
Mode extension: CM (complete main) 
Format settings, Endianness: Big 
Codec ID: A_AC3 
Duration: 22mn 49s 
Bit rate mode: Constant 
Bit rate: 192 Kbps 
Channel (s): 2 channels 
Channel positions: Front: LR 
Sampling rate: 48.0 KHz 
Bit depth: 16 bits 
Compression mode: Lossy 
Stream size: 31.3 MiB (3%) 
Title: 1 +1 AC3 2.0 @ 192 kbps - karvai 
Language: Ukrainian 
Default: Yes 
Forced: No 

Audio # 2 
ID: 3 
Format: AC-3 
Format / Info: Audio Coding 3 
Mode extension: CM (complete main) 
Format settings, Endianness: Big 
Codec ID: A_AC3 
Duration: 22mn 49s 
Bit rate mode: Constant 
Bit rate: 640 Kbps 
Channel (s): 6 channels 
Channel positions: Front: LCR, Side: LR, LFE 
Sampling rate: 48.0 KHz 
Bit depth: 16 bits 
Compression mode: Lossy 
Stream size: 104 MiB (10%) 
Title: AC3 5.1 @ 640 kbps 
Language: English 
Default: No 
Forced: No 

Audio # 3 
ID: 4 
Format: AC-3 
Format / Info: Audio Coding 3 
Mode extension: CM (complete main) 
Format settings, Endianness: Big 
Codec ID: A_AC3 
Duration: 22mn 49s 
Bit rate mode: Constant 
Bit rate: 192 Kbps 
Channel (s): 2 channels 
Channel positions: Front: LR 
Sampling rate: 48.0 KHz 
Bit depth: 16 bits 
Compression mode: Lossy 
Stream size: 31.3 MiB (3%) 
Title: Commentary 
Language: English 
Default: No 
Forced: No 

Text 
ID: 5 
Format: UTF-8 
Codec ID: S_TEXT/UTF8 
Codec ID / Info: UTF-8 Plain Text 
Title: Full 
Language: English 
Default: Yes 
Forced: No
Friends.Season.01.BluRay.720p.Ukr.Eng.RTM_Hurtom/Friends.s01e01(001).720p.BDRip.Ukr.Eng.RTM_Hurtom.mkv 1.062 GB
Friends.Season.01.BluRay.720p.Ukr.Eng.RTM_Hurtom/Friends.s01e02(002).720p.BDRip.Ukr.Eng.RTM_Hurtom.mkv 1.027 GB
Friends.Season.01.BluRay.720p.Ukr.Eng.RTM_Hurtom/Friends.s01e03(003).720p.BDRip.Ukr.Eng.RTM_Hurtom.mkv 1.023 GB
Gathering some info...

Register and log in Isohunt and see no captcha anymore!

4000 symbols left
Hash 68EBFF698101835CE3914DE49569BB35A56B96AB