imdb
rating

5.4
The Man with the Iron Fists

The Man with the Iron Fists (2012)

Action

Full description

The Man With The Iron Fists 2012 HDRip English [Accipiter]

Size 735.925 MB   35 seeders     Added 2012-12-10 02:42:35

Stream torrent
Starting‥ You need BitLord! Get it from 1BitLord.com
To download or stream you need BitLord. Visit them at BitLord.com
[img]image[/img]

[b]Cover:[/b]

[img]image[/img]

[b]Release info:[/b]

[code]General
Format : Matroska
Format version : Version 2
File size : 702 MiB
Duration : 1h 35mn
Overall bit rate : 1 025 Kbps

Video
ID : 1
Format : MPEG-4 Visual
Format profile : Advanced Simple@L5
Format settings, BVOP : Yes
Format settings, QPel : No
Format settings, GMC : No warppoints
Format settings, Matrix : Default (H.263)
Codec ID : V_MS/VFW/FOURCC / XVID
Codec ID/Hint : XviD
Duration : 1h 35mn
Bit rate : 877 Kbps
Width : 624 pixels
Height : 304 pixels
Display aspect ratio : 2.053
Frame rate mode : Constant
Frame rate : 23.976 fps
Color space : YUV
Chroma subsampling : 4:2:0
Bit depth : 8 bits
Scan type : Progressive
Compression mode : Lossy
Bits/(Pixel*Frame) : 0.193
Stream size : 600 MiB (86%)
Writing library : XviD 64
Language : English
Default : Yes
Forced : No

Audio
ID : 2
Format : MPEG Audio
Format version : Version 1
Format profile : Layer 3
Mode : Joint stereo
Mode extension : MS Stereo
Muxing mode : Header stripping
Codec ID : A_MPEG/L3
Codec ID/Hint : MP3
Duration : 1h 35mn
Bit rate mode : Constant
Bit rate : 128 Kbps
Channel(s) : 2 channels
Sampling rate : 48.0 KHz
Compression mode : Lossy
Delay relative to video : 12ms
Stream size : 87.6 MiB (12%)
Language : English
Default : Yes
Forced : No

Source:
credit to original movie ripper HELLRAZ0R (Thanks)[/code]

[b]IMDB Info:[/b]

[code]On the hunt for a fabled treasure of gold, a band of warriors, assassins, and a rogue British soldier descend upon a village in feudal China, where a humble blacksmith looks to defend himself and his fellow villagers.

Director: RZA
Writers: Eli Roth (screenplay), RZA (screenplay)
Stars: Russell Crowe, Cung Le and Lucy Liu

Genres: Action[/code]

http://www.imdb.com/title/tt1258972/

[b]Screen Shot:[/b]

[img]image[/img]
[img]image[/img]
[img]image[/img]
[img]image[/img]
[img]image[/img]
[img]image[/img]
The Man With The Iron Fists 2012 HDRip English [Accipiter].mkv 735.925 MB
Torrent Downloaded From Digtorrent.org.txt 346 B
Torrent downloaded from souravfile torrents on BTScene.eu.txt 69 B
Gathering some info...

Register and log in Isohunt and see no captcha anymore!

4000 symbols left
Hash AE11B5B88C970D0C92757735EA5A33F93F7B1EFB

Related torrents for "The Man With The Iron Fists 2012 HDRip English [Accipiter]"

Torrent search:

english hd 2012