imdb
rating

5.0
Action

Action (1980)

Full description
quality   screener x264 dvdrip hd bd

Beck: The Movie (Beck: Live Action Eng Subbed) 480p [Cursator]

Size 598.096 MB   0 seeders     Added 2012-12-10 03:41:11

Stream torrent
Starting‥ You need BitLord! Get it from BitLord.com
To download or stream you need BitLord. Visit them at BitLord.com
[center] [size=13]Beck The Movie! (Beck Live Action) at 480p Video Quality :)

Please seed after you download.[/size]

--------------------------------------------------------------------------------

[size=48][color=#3708E3][b]Cover[/size][/color][/b]
--------------------------------------------------------------------------------
        
[img]image[/img]
--------------------------------------------------------------------------------

[img]image[/img]
---------------------------------------------------------------------------------

[size=13]Torrent Statistics[/size]

[url=http://www.torrent-stats.info][img]image[/img][/url]
----------------------------------------------------------------------------------

[size=13]General
--------

Format                                   : WebM
Format version                           : Version 2
File size                                : 569 MiB
Duration                                 : 2h 26mn
Overall bit rate mode                    : Variable
Overall bit rate                         : 543 Kbps
Writing application                      : google
Writing library                          : google


[img]image[/img]
---------------------------------------

ID                                       : 1
Format                                   : VP8
Codec ID                                 : V_VP8
Duration                                 : 2h 26mn
Bit rate                                 : 384 Kbps
Width                                    : 640 pixels
Height                                   : 284 pixels
Display aspect ratio                     : 2.25:1
Frame rate mode                          : Constant
Frame rate                               : 23.976 fps
Compression mode                         : Lossy
Bits/(Pixel*Frame)                       : 0.088
Stream size                              : 403 MiB (71%)
Language                                 : English
Default                                  : Yes
Forced                                   : No

[img]image[/img]
----------------------------------

ID                                       : 2
Format                                   : Vorbis
Format settings, Floor                   : 1
Codec ID                                 : A_VORBIS
Duration                                 : 2h 26mn
Bit rate mode                            : Variable
Bit rate                                 : 128 Kbps
Channel(s)                               : 2 channels
Sampling rate                            : 44.1 KHz
Compression mode                         : Lossy
Stream size                              : 134 MiB (24%)
Default                                  : Yes
Forced                                   : No


----------------------------------------------------------------------------------

[img]image[/img]
----------------------------------------------------------------------------------
              
[img]image[/img]


              
[img]image[/img]


              
[img]image[/img]


              
[img]image[/img]


              
[img]image[/img][/size]


 
----------------------------------------------------------------------------------

[b][size=48][color=#3708E3]Story[/b][/size][/color]
----------------------------------------------------------------------------------

[size=13]Tanaka Yukio, better known by his nickname Koyuki is a 16 year old who feels disconnected from life in general. Through the act of saving a mismatched dog, he meets guitarist Minami Ryuusuke, and becomes involved in Ryuusuke's new band BECK. Koyuki's life starts to change as the band struggles towards fame.
----------------------------------------------------------------------------------

Thank you for downloading. 

Enjoy Watching :)		[/size]
----------------------------------------------------------------------------------

[size=48][color=#3708E3][b]Facebook[/size][/color][/b]
----------------------------------------------------------------------------------

                                                                             [url=http://facebook.com/cursator] [img]image[/img][/url]
                                                        [b]                     [size=36]Find Me on Facebook :)[/size][/b]

or 

[b][size=36]Cursator@ymail.com[/size][/b]
							
[/center]
			
					
								
								
		
Beck the Movie/BECK_-Mongolian-Chop-Squad-Full-Live-Action-Movie-(Eng-Sub).srt 82.906 KB
Beck the Movie/BECK_-Mongolian-Chop-Squad-Full-Live-Action-Movie-(Eng-Sub).webm 596.534 MB
Beck the Movie/Cover/Beck [Cursator].jpg 242.043 KB
Gathering some info...

Register and log in Isohunt and see no captcha anymore!

4000 symbols left
Hash c0a63cb5e61555d1bc41b0c4e3914dde589b4b8e

Related torrents for "Beck: The Movie (Beck: Live Action Eng Subbed) 480p [Cursator]"

Torrent search:

english