imdb
rating

7.0
Cougar Town

Cougar Town (2014)

Full description

Cougar Town S01E01E02 HDTV XviD-RoR [Lektor PL]

Size 338.67 MB   0 seeders     Added 2012-12-10 18:21:57

Stream torrent
Starting‥ You need BitLord! Get it from BitLord.com
To download or stream you need BitLord. Visit them at BitLord.com
Tytuł PL: ..:: Cougar Town: Miasto Kocic ::..
Tytuł : ..:: Cougar Town ::..

Produkcja: USA
Gatunek: Komedia
Data premiery: 2009
Reżyseria: Bill Lawrence, Chris Koch
Zdjęcia: Andrew Rawson
Muzyka: Golden Sgro Waz , Al Sgro
Stacja telewizyjna: ABC
Czas trwania odcinka: 30 min.
http://www.filmweb.pl/serial/Cougar+Town%3A+Miasto+kocic-2009-492645
http://abc.go.com/shows/cougar-town

O P I S:

Serial opowiada o życiu czterdziestolatki Jules, która dopiero co się rozeszła z mężem i wychowuje siedemnastoletniego syna. Stawia czoła wszystkim swoim decyzjom i wydarzeniom w życiu. Za namową swojej przyjaciółki zaczyna żyć na nowo i umawiać się z facetami. 

O B S A D A:

Courteney Cox ... Jules Cobb
Christa Miller ... Ellie Torres
Dan Byrd ... Travis Cobb
Ian Gomez ... Andy Torres
Busy Philipps ... Laurie Keller
Brian Van Holt ... Bobby Cobb

Miasto.Kocic.S01E01.HDTV.XviD-RoR.Druga Młodość.[Lektor PL].avi

Format : AVI
Format/Info : Audio Video Interleave
File size : 191 MiB
Duration : 22mn 33s
Overall bit rate : 1 183 Kbps
Writing application : VirtualDubMod 1.5.4.1 (build 2178/release)
Writing library : VirtualDubMod build 2178/release

Video
ID : 0
Format : MPEG-4 Visual
Format profile : Simple@L0
Format settings, BVOP : No
Format settings, QPel : No
Format settings, GMC : No warppoints
Format settings, Matrix : Default (H.263)
Codec ID : XVID
Codec ID/Hint : XviD
Duration : 22mn 33s
Bit rate : 1 048 Kbps
Width : 640 pixels
Height : 480 pixels
Display aspect ratio : 4:3
Frame rate : 25.000 fps
Color space : YUV
Chroma subsampling : 4:2:0
Bit depth : 8 bits
Scan type : Progressive
Compression mode : Lossy
Bits/(Pixel*Frame) : 0.136
Stream size : 169 MiB (89%)
Writing library : XviD 1.0.1 (UTC 2004-06-05)

Audio
ID : 1
Format : MPEG Audio
Format version : Version 1
Format profile : Layer 3
Mode : Joint stereo
Codec ID : 55
Codec ID/Hint : MP3
Duration : 22mn 33s
Bit rate mode : Constant
Bit rate : 128 Kbps
Channel(s) : 2 channels
Sampling rate : 48.0 KHz
Compression mode : Lossy
Stream size : 20.6 MiB (11%)
Alignment : Aligned on interleaves
Interleave, duration : 80 ms (2.00 video frames)
Interleave, preload duration : 504 ms
Writing library : LAME3.98r
Encoding settings : -m j -V 4 -q 2 -lowpass 17 -b 128

Miasto.Kocic.S01E02.HDTV.XviD-RoR.Szerokie Wody.[Lektor PL].mkv

Format : Matroska
Format version : Version 2
File size : 132 MiB
Duration : 20mn 37s
Overall bit rate mode : Variable
Overall bit rate : 895 Kbps
Writing application : Lavf52.82.0
Writing library : Lavf52.82.0

Video
ID : 1
Format : MPEG-4 Visual
Format profile : Simple@L3
Format settings, BVOP : No
Format settings, QPel : No
Format settings, GMC : No warppoints
Format settings, Matrix : Default (H.263)
Codec ID : V_MPEG4/ISO/ASP
Codec ID/Info : Advanced Simple Profile
Duration : 20mn 37s
Width : 640 pixels
Height : 480 pixels
Display aspect ratio : 4:3
Frame rate : 25.000 fps
Color space : YUV
Chroma subsampling : 4:2:0
Bit depth : 8 bits
Scan type : Progressive
Compression mode : Lossy
Writing library : XviD 1.2.1 (UTC 2008-12-04)
Default : Yes
Forced : No

Audio
ID : 2
Format : MPEG Audio
Format version : Version 1
Format profile : Layer 3
Mode : Joint stereo
Mode extension : MS Stereo
Codec ID : A_MPEG/L3
Codec ID/Hint : MP3
Duration : 20mn 37s
Bit rate mode : Variable
Channel(s) : 2 channels
Sampling rate : 44.1 KHz
Compression mode : Lossy
Default : Yes
Forced : No
Miasto.Kocic.S01E01.HDTV.XviD-RoR.Druga Młodość.[Lektor PL].avi 200.163 MB
Miasto.Kocic.S01E02.HDTV.XviD-RoR.Szerokie Wody.[Lektor PL].mkv 138.506 MB
Gathering some info...

Register and log in Isohunt and see no captcha anymore!

4000 symbols left
Hash A00825DA6648F8A22C9C73509F7E5D1C86D507E7

Related torrents for "Cougar Town S01E01E02 HDTV XviD-RoR [Lektor PL]"

Torrent search:

hdtv