Bunheads

Bunheads (2012)

Dance, Drama

Full description

Bunheads 2012 S01E08 TVRip XviD-RoR [Lektor PL]

Size 442.641 MB   0 seeders     Added 2012-12-10 23:01:50

Stream torrent
Starting‥ You need BitLord! Get it from BitLord.com
To download or stream you need BitLord. Visit them at BitLord.com
Tytuł: ..:: Bunheads ::.. 

Produkcja: USA
Gatunek: Komedia
Data premiery: 11.06.2012
Reżyseria: Kenny Ortega
Zdjęcia: Anette Haellmigk
Stacja telewizyjna: ABC Family
Czas trwania odcinka: 30 min.
http://www.filmweb.pl/serial/Bunheads-2012-648291
http://abcfamily.go.com/shows/bunheads

O P I S:

Taneczny dramat, w którym główną rolę gra Sutton Foster. Aktorka wciela się w Michelle, tancerkę z Las Vegas, który impulsywnie wychodzi za mąż i przeprowadza się do sennego miasteczka swojego męża. Zostaje tam nauczycielką w szkole tanecznej.

O B S A D A:

Sutton Foster ... Michelle
Stacey Oristano ... Truly Stone
Angelina McCoy ... Talia
Emma Dumont ... Melanie Segal
Kaitlyn Jenkins ... Bettina Jordan
Christian Barillas ... Jimmy Hewson
Beth Curry ... Hilary
Bianca Bonciu ... Tancerka
Wendy Douglas ... Lucy
Jack Fitz ... Ochroniarz

Bunheads 2012 S01E08 [TVRip XviD-RoR] [Lektor PL].avi

Format : AVI
Format/Info : Audio Video Interleave
File size : 422 MiB
Duration : 42mn 16s
Overall bit rate : 1 396 Kbps

Video
ID : 0
Format : AVC
Format/Info : Advanced Video Codec
Format profile : Main@L5.1
Format settings, CABAC : Yes
Format settings, ReFrames : 1 frame
Codec ID : H264
Duration : 42mn 16s
Bit rate : 1 194 Kbps
Width : 1 024 pixels
Height : 576 pixels
Display aspect ratio : 16:9
Frame rate : 25.000 fps
Color space : YUV
Chroma subsampling : 4:2:0
Bit depth : 8 bits
Scan type : Progressive
Bits/(Pixel*Frame) : 0.081
Stream size : 361 MiB (86%)

Audio
ID : 1
Format : MPEG Audio
Format version : Version 1
Format profile : Layer 3
Codec ID : 55
Codec ID/Hint : MP3
Duration : 42mn 16s
Bit rate mode : Constant
Bit rate : 192 Kbps
Channel(s) : 2 channels
Sampling rate : 44.1 KHz
Compression mode : Lossy
Stream size : 58.1 MiB (14%)
Alignment : Split accross interleaves
Interleave, duration : 40 ms (1.00 video frame)
Interleave, preload duration : 154 ms
Writing library : LAMELAME_MAJOR_VERSI
Bunheads 2012 S01E08 [TVRip XviD-RoR] [Lektor PL].avi 442.641 MB
Gathering some info...

Register and log in Isohunt and see no captcha anymore!

4000 symbols left
Hash 829387EA1D1F42AC77A5B24963763EFA15E7C43E

Related torrents for "Bunheads 2012 S01E08 TVRip XviD-RoR [Lektor PL]"

Torrent search:

season 01 hdtv episode 08 2012