imdb
rating

6.9
Hitchcock

Hitchcock (2012)

Drama

Full description
quality   dvdrip x264 fullhd hd

Hitchcock 2012 LIMITED DVDRip XviD-MARGiN

Size 708.431 MB   0 seeders     Added 2012-12-11 13:38:54

Stream torrent
Starting‥ You need BitLord! Get it from BitLord.com
To download or stream you need BitLord. Visit them at BitLord.com
\r\n\r\n\r\n\r\n\r\nVideo\r\nID                               : 0\r\nFormat                           : MPEG-4 Visual\r\nFormat profile                   : Advanced Simple@L5\r\nFormat settings, BVOP            : 2\r\nFormat settings, QPel            : No\r\nFormat settings, GMC             : No warppoints\r\nFormat settings, Matrix          : Default (H.263)\r\nCodec ID                         : XVID\r\nCodec ID/Hint                    : XviD\r\nDuration                         : 1h 28mn\r\nBit rate                         : 945 Kbps\r\nWidth                            : 720 pixels\r\nHeight                           : 304 pixels\r\nDisplay aspect ratio             : 2.35:1\r\nFrame rate                       : 25.000 fps\r\nColor space                      : YUV\r\nChroma subsampling               : 4:2:0\r\nBit depth                        : 8 bits\r\nScan type                        : Progressive\r\nCompression mode                 : Lossy\r\nBits/(Pixel*Frame)               : 0.173\r\nStream size                      : 598 MiB (67%)\r\nWriting library                  : XviD 1.2.1 (UTC 2008-12-04)\r\n\r\nAudio\r\nID                               : 1\r\nFormat                           : AC-3\r\nFormat/Info                      : Audio Coding 3\r\nMode extension                   : CM (complete main)\r\nCodec ID                         : 2000\r\nDuration                         : 1h 28mn\r\nBit rate mode                    : Constant\r\nBit rate                         : 448 Kbps\r\nChannel(s)                       : 6 channels\r\nChannel positions                : Front: L C R, Side: L R, LFE\r\nSampling rate                    : 48.0 KHz\r\nBit depth                        : 16 bits\r\nCompression mode                 : Lossy\r\nStream size                      : 283 MiB (32%)\r\nAlignment                        : Aligned on interleaves\r\nInterleave, duration             : 64 ms (1.60 video frames)\r\nInterleave, preload duration     : 192 ms\r\nTitle                            : ps2 - [2] English_new\r\n
Hitchcock.2012.LIMITED.DVDRip.XviD-MARGiN/Hitchcock_2012_LIMITED_DVDRip_Xvid_UnKnOwN.wmv 708.269 MB
Hitchcock.2012.LIMITED.DVDRip.XviD-MARGiN/info.nfo 5.215 KB
Hitchcock.2012.LIMITED.DVDRip.XviD-MARGiN/READ this before playing the Video.txt 5.748 KB
Gathering some info...

Register and log in Isohunt and see no captcha anymore!

4000 symbols left
Hash a8615ed45e813375c081da37ddd1e6867105cc4b

Related torrents for "Hitchcock 2012 LIMITED DVDRip XviD-MARGiN"

Torrent search:

dvdrip 2012