Bunheads

Bunheads (2012)

Dance, Drama

Full description

Bunheads 2012 S01E09 TVRip XviD-RoR [Lektor PL]

Size 493.819 MB   0 seeders     Added 2012-12-11 23:22:26

Stream torrent
Starting‥ You need BitLord! Get it from 1BitLord.com
To download or stream you need BitLord. Visit them at BitLord.com
Tytuł: ..:: Bunheads ::.. 

Produkcja: USA
Gatunek: Komedia
Data premiery: 11.06.2012
Reżyseria: Kenny Ortega
Zdjęcia: Anette Haellmigk
Stacja telewizyjna: ABC Family
Czas trwania odcinka: 30 min.
http://www.filmweb.pl/serial/Bunheads-2012-648291
http://abcfamily.go.com/shows/bunheads

O P I S:

Taneczny dramat, w którym główną rolę gra Sutton Foster. Aktorka wciela się w Michelle, tancerkę z Las Vegas, który impulsywnie wychodzi za mąż i przeprowadza się do sennego miasteczka swojego męża. Zostaje tam nauczycielką w szkole tanecznej.

O B S A D A:

Sutton Foster ... Michelle
Stacey Oristano ... Truly Stone
Angelina McCoy ... Talia
Emma Dumont ... Melanie Segal
Kaitlyn Jenkins ... Bettina Jordan
Christian Barillas ... Jimmy Hewson
Beth Curry ... Hilary
Bianca Bonciu ... Tancerka
Wendy Douglas ... Lucy
Jack Fitz ... Ochroniarz

Bunheads 2012 S01E09 [TVRip XviD-RoR] [Lektor PL].avi

Format : AVI
Format/Info : Audio Video Interleave
File size : 471 MiB
Duration : 45mn 46s
Overall bit rate : 1 438 Kbps
Writing application : Lavf52.94.0

Video
ID : 0
Format : MPEG-4 Visual
Format profile : Simple@L1
Format settings, BVOP : No
Format settings, QPel : No
Format settings, GMC : No warppoints
Format settings, Matrix : Default (H.263)
Codec ID : FMP4
Duration : 45mn 46s
Bit rate : 1 300 Kbps
Width : 852 pixels
Height : 480 pixels
Display aspect ratio : 16:9
Frame rate : 23.976 fps
Color space : YUV
Chroma subsampling : 4:2:0
Bit depth : 8 bits
Scan type : Progressive
Compression mode : Lossy
Bits/(Pixel*Frame) : 0.133
Stream size : 426 MiB (90%)
Writing library : Lavc52.108.0

Audio
ID : 1
Format : AC-3
Format/Info : Audio Coding 3
Mode extension : CM (complete main)
Format settings, Endianness : Big
Codec ID : 2000
Duration : 45mn 46s
Bit rate mode : Constant
Bit rate : 128 Kbps
Channel(s) : 2 channels
Channel positions : Front: L R
Sampling rate : 48.0 KHz
Bit depth : 16 bits
Compression mode : Lossy
Stream size : 41.9 MiB (9%)
Alignment : Aligned on interleaves
Interleave, duration : 32 ms (0.77 video frame)

Bunheads 2012 S01E09 [TVRip XviD-RoR] [Lektor PL].avi 493.819 MB
Gathering some info...

Register and log in Isohunt and see no captcha anymore!

4000 symbols left
Hash D697CD2F5694E80C5BA1F1CDB6B3B58420650DA5

Related torrents for "Bunheads 2012 S01E09 TVRip XviD-RoR [Lektor PL]"

Torrent search:

season 01 hdtv episode 09 2012