Disneys Peter Pan SoundTracks EAC Flac Hectorbusinspector

Size 435.042 MB   5 seeders     Added 2012-12-12 06:19:16

Stream torrent
Starting‚Ä• You need BitLord! Get it from BitLord.com
To download or stream you need BitLord. Visit them at BitLord.com
Product details

Audio CD (6 Feb 2006)
Number of Discs: 1
Format: Soundtrack, Original recording remastered, Extra tracks
Label: Walt Disney Records

Track Listings
1. Main Title (The Second Star To The Right)/All This Has Happened Before
2. The Last Night In The Nursery
3. On The Rooftop/What's A Kiss/Perturbed Pixie
4. You Can Fly! You Can Fly! You Can Fly!
5. A Pirate's Life
6. Blast That Peter Pan/A Pirate's Life (Reprise)
7. The Legend Of The Croc/Double The Powder And Shorten The Fuse/Follow Tinker Bell
8. Just When I Brought You A Mother/Banished
9. Following The Leader
10. Hide And Sneak/No Let 'Em Go
11. Mermaid Lagoon/Bad Day At Skull Rock
12. Plotting A Pixie's Plight
13. What Made Red Man Red/Tinknapped
14. Rumor Has It/Hangman's Tree
15. Big Chief Flying Eagle/I Had A Mother Once
16. Your Mother And Mine
17. Good-Bye Peter/Shanghaied
18. Captain Hook Never Breaks A Promise/The Elegant Captain Hook/A Little Surprise/Oh Tink/The Pen Or The Plank
19. No Splash/Take That/I'm A Codfish!/Crocbait/The Hero Of Never Land
20. Home Again / Mermaids, Pirates, And Indians / Finale (You Can Fly! You Can Fly! You Can Fly!
21. Never Smile At A Crocodile
22. The Boatswain's Song

Format : FLAC
Format/Info : Free Lossless Audio Codec
File size : 5.73 MiB
Duration : 2mn 18s
Overall bit rate mode : Variable
Overall bit rate : 348 Kbps
Album : walt disney's peter pan
Part : 1
Part/Total : 1
Track name : main title, Second star to the right + all this has happened before
Track name/Position : 01
Track name/Total : 22
Performer : various
Genre : Soundtrack
Recorded date : 1951

Audio
Format : FLAC
Format/Info : Free Lossless Audio Codec
Duration : 2mn 18s
Bit rate mode : Variable
Bit rate : 347 Kbps
Channel(s) : 2 channels
Sampling rate : 44.1 KHz
Bit depth : 16 bits
Stream size : 5.73 MiB (100%)
Writing library : libFLAC 1.2.1 (UTC 2007-09-17)

Return To Never Land - Peter Pan In Disney's Return To Neverland Soundtrack CD



Peter Pan In Disney's Return To Neverland Soundtrack album by Return To Never Land
was released Feb 12, 2002 on the Walt Disney label. Original score composed and
conducted by Joel McNeely. Peter Pan In Disney's Return To Neverland Soundtrack
CD music contains a single disc with 23 songs.


1 Do You Believe In Magic
2 Main Title
3 Second Star to the Right
4 Tale of Pan
5 I'll Try
6 Jane Is Kidnapped
7 Childhood Lost
8 Here We Go Another Plan
Additional Track Information Peter Pan In Disney's Return To Neverland Soundtrack CD music
9 Summoning The Octopus / Pan Saves Jane
10 Flight Through Never Land
11 So to Be One of Us
12 Meet the Lost Boys
13 Now That You're One of Us
14 Longing For Home
15 Hook and the Lost Boys
16 Hook Deceives Jane
Additional Track Information Peter Pan In Disney's Return To Neverland Soundtrack music CDs
17 Jane Finds the Treasure
18 Pan Is Caputured
19 I'll Try (Reprise)
20 Jane Saves Tink and Pan
21 Jane Can Fly
22 Flying Home
23 Reunion

Format : FLAC
Format/Info : Free Lossless Audio Codec
File size : 21.5 MiB
Duration : 2mn 58s
Overall bit rate mode : Variable
Overall bit rate : 1 011 Kbps
Album : Return to Never Land
Part : 1
Part/Total : 1
Track name : Do You Believe in Magic? (Performed by BBMAK)
Track name/Position : 01
Track name/Total : 23
Performer : Joel McNeely
Genre : Soundtrack
Recorded date : 2001

Audio
Format : FLAC
Format/Info : Free Lossless Audio Codec
Duration : 2mn 58s
Bit rate mode : Variable
Bit rate : 1 010 Kbps
Channel(s) : 2 channels
Sampling rate : 44.1 KHz
Bit depth : 16 bits
Stream size : 21.5 MiB (100%)
Writing library : libFLAC 1.2.1 (UTC 2007-09-17)		
Back.jpg 359.872 KB
Disney's Peter Pan EAC Flac/01 main title, Second star to the right + all this has happened before.flac 6.013 MB
Disney's Peter Pan EAC Flac/02 the last night in the nursery.flac 6.89 MB
Gathering some info...

Register and log in Isohunt and see no captcha anymore!

4000 symbols left
Hash 90CF8F4A81DB7B8F7EA554C0128638A3AEE07291