X-play Best of 2012 Awards x264 OzQuant

Size 311.522 MB   3 seeders     Added 2012-12-12 08:22:44

Stream torrent
Starting‥ You need BitLord! Get it from BitLord.com
To download or stream you need BitLord. Visit them at BitLord.com
[size=200]Episode Info[/size]
Tune in tonight at 6/5c as X-Play presents its hour-long Best of 2012 Award Show special! They're handing out hardware in over twenty categories, including the coveted Game of the Year. See the full list of nominees here, or get a preview below!

Game of the Year
The nominees are: Journey, Halo 4, Assassin's Creed 3, Call of Duty: Black Ops 2, Borderlands 2, XCOM: Enemy Unknown, The Witcher 2 Enhanced Edition and Hitman: Absolution.

Best Multiplayer Game
The nominees are: Halo 4, Guild Wars 2, Borderlands 2, Mass Effect 3, and Journey.

Best Shooter
The nominees are: Halo 4, Call of Duty: Black Ops 2, Max Payne 3, Far Cry 3 and Borderlands 2.

Best Role-Playing Game
The nominees are: Mass Effect 3, Guild Wars 2, Xenoblade Chronicles, The Witcher 2 Enhanced Edition and Dragon's Dogma.

Best Action/Adventure Game
The nominees are: Assassin's Creed 3, The Walking Dead, Mark of the Ninja, Sleeping Dogs and Hitman: Absolution.

Best Writing
The nominees are: Borderlands 2, Spec Ops: The Line, Far Cry 3, Assassin's Creed 3 and The Walking Dead.

...And so many more
We'll hand out awards in categories like Most Original Game, Best Sports Game, Best Downloadable Game, Best Social Game, Best Fighting 

Game and more! See the full list of nominees here.

[size=200]File Info[/size]
Format : MPEG-4
Format profile : Base Media / Version 2
Codec ID : mp42
File size : 297 MiB
Duration : 41mn 50s
Overall bit rate mode : Variable
Overall bit rate : 993 Kbps

[size=200]Video[/size]
ID : 1
Format : AVC
Format/Info : Advanced Video Codec
Format profile : Main@L3.0
Format settings, CABAC : Yes
Format settings, ReFrames : 4 frames
Codec ID : avc1
Codec ID/Info : Advanced Video Coding
Duration : 41mn 50s
Bit rate mode : Variable
Bit rate : 925 Kbps
Width : 528 pixels
Height : 416 pixels
Display aspect ratio : 16:9
Frame rate mode : Constant
Frame rate : 25.000 fps
Color space : YUV
Chroma subsampling : 4:2:0
Bit depth : 8 bits
Scan type : Progressive
Bits/(Pixel*Frame) : 0.168
Stream size : 277 MiB (93%)
Writing library : x264 core 112

[size=200]Audio[/size]
ID : 2
Format : AAC
Format/Info : Advanced Audio Codec
Format profile : LC
Codec ID : 40
Duration : 41mn 50s
Bit rate mode : Variable
Bit rate : 64.0 Kbps
Maximum bit rate : 80.4 Kbps
Channel(s) : 2 channels
Channel positions : Front: L R
Sampling rate : 32.0 KHz
Compression mode : Lossy
Stream size : 19.2 MiB (6%)
X-play.Best.of.2012.Awards.x264.OzQuant.mp4 311.522 MB
Gathering some info...

Register and log in Isohunt and see no captcha anymore!

4000 symbols left
Hash F42C5E3A4F330FE94B3FC656FE11C6702B02905A