imdb
rating

6.3
Running Man

Running Man (2013)

Action, Comedy, Thriller

Full description
quality   hd x264 bd fullhd h264 telesync

[KSHOWNOW NET]Running Man E123 720P avi

Size 1.891 GB   3 seeders     Added 2012-12-12 09:35:54

Stream torrent
Starting‥ You need BitLord! Get it from BitLord.com
10
To download or stream you need BitLord. Visit them at BitLord.com
This is KSHOWNOW release :)

Format : AVI

Format/Info : Audio Video Interleave

File size : 1.76 GiB

Duration : 1h 33mn

Overall bit rate : 2 693 Kbps

Writing library : VirtualDub build 32842/release



Video

ID : 0

Format : AVC

Format/Info : Advanced Video Codec

Format profile : High@L4.1

Format settings, CABAC : Yes

Format settings, ReFrames : 4 frames

Codec ID : H264

Duration : 1h 33mn

Bit rate : 2 490 Kbps

Width : 1 280 pixels

Height : 720 pixels

Display aspect ratio : 16:9

Frame rate : 29.970 fps

Color space : YUV

Chroma subsampling : 4:2:0

Bit depth : 8 bits

Scan type : Progressive

Bits/(Pixel*Frame) : 0.090

Stream size : 1.63 GiB (92%)

Writing library : x264 core 125 r2200bm 999b753



Audio

ID : 1

Format : MPEG Audio

Format version : Version 1

Format profile : Layer 3

Mode : Joint stereo

Mode extension : MS Stereo

Codec ID : 55

Codec ID/Hint : MP3

Duration : 1h 33mn

Bit rate mode : Constant

Bit rate : 192 Kbps

Channel(s) : 2 channels

Sampling rate : 48.0 KHz

Compression mode : Lossy

Stream size : 129 MiB (7%)

Alignment : Split accross interleaves

Interleave, duration : 33 ms (1.00 video frame)

Interleave, preload duration : 500 ms

Writing library : LAME3.99.4-------------------------------------Torrent downloaded from http://thepiratebay.se
[KSHOWNOW.NET]Running.Man.E123.720P.avi 1.891 GB
Gathering some info...

Register and log in Isohunt and see no captcha anymore!

4000 symbols left
Hash 3FF3A856432E9F537B0A4638F42F1D67E4380D79

Related torrents for "[KSHOWNOW NET]Running Man E123 720P avi"

Torrent search:

hd