imdb
rating

6.7
The Bourne Legacy

The Bourne Legacy (2012)

Action, Thriller

Full description
quality   screener dvdrip x264 hd bd

[KST VN]The Bourne Legacy 2012 HD[KSTE] mkv

Size 1.522 GB   0 seeders     Added 2012-12-12 13:35:29

Stream torrent
Starting‥ You need BitLord! Get it from 1BitLord.com
To download or stream you need BitLord. Visit them at BitLord.com
Texted language: Vietnamese



The.Bourne.Legacy.2012.HD[KSTE].mkv
Format                                   : Matroska
Format version                           : Version 2
File size                                : 1.42 GiB
Duration                                 : 2h 15mn
Overall bit rate                         : 1 500 Kbps
Encoded date                             : UTC 2012-12-11 18:18:30
Writing application                      : mkvmerge v5.6.0 (Kenya Kane) built on May 27 2012 16:44:04
Writing library                          : libebml v1.2.3 + libmatroska v1.3.0

Video
ID                                       : 1
Format                                   : AVC
Format/Info                              : Advanced Video Codec
Format profile                           : High@L4.1
Format settings, CABAC                   : Yes
Format settings, ReFrames                : 4 frames
Codec ID                                 : V_MPEG4/ISO/AVC
Duration                                 : 2h 15mn
Bit rate                                 : 1 116 Kbps
Width                                    : 1 280 pixels
Height                                   : 536 pixels
Display aspect ratio                     : 2.40:1
Frame rate                               : 25.000 fps
Color space                              : YUV
Chroma subsampling                       : 4:2:0
Bit depth                                : 8 bits
Scan type                                : Progressive
Bits/(Pixel*Frame)                       : 0.065
Stream size                              : 1.03 GiB (72%)
Writing library                          : x264 core 125 r2200 
Audio
ID                                       : 2
Format                                   : AC-3
Format/Info                              : Audio Coding 3
Mode extension                           : CM (complete main)
Format settings, Endianness              : Big
Codec ID                                 : A_AC3
Duration                                 : 2h 15mn
Bit rate mode                            : Constant
Bit rate                                 : 384 Kbps
Channel(s)                               : 2 channels
Channel positions                        : Front: L R
Sampling rate                            : 44.1 KHz
Bit depth                                : 16 bits
Compression mode                         : Lossy
Stream size                              : 372 MiB (26%)
Default                                  : Yes
Forced                                   : No-------------------------------------Torrent downloaded from http://thepiratebay.se
[KST.VN]The.Bourne.Legacy.2012.HD[KSTE].mkv 1.522 GB
Gathering some info...

Register and log in Isohunt and see no captcha anymore!

4000 symbols left
Hash FF8D200F4DA217369F73C02D52A8C6119BAEF762

Related torrents for "[KST VN]The Bourne Legacy 2012 HD[KSTE] mkv"

Torrent search:

hd 2012