imdb
rating

7.0
Cougar Town

Cougar Town (2014)

Full description

Cougar Town S01E05E06 HDTV XviD-RoR [Lektor PL]

Size 400.528 MB   0 seeders     Added 2012-12-12 17:41:13

Stream torrent
Starting‥ You need BitLord! Get it from BitLord.com
To download or stream you need BitLord. Visit them at BitLord.com
Tytuł PL: ..:: Cougar Town: Miasto Kocic ::..
Tytuł : ..:: Cougar Town ::..

Produkcja: USA
Gatunek: Komedia
Data premiery: 2009
Reżyseria: Bill Lawrence, Chris Koch
Zdjęcia: Andrew Rawson
Muzyka: Golden Sgro Waz , Al Sgro
Stacja telewizyjna: ABC
Czas trwania odcinka: 30 min.
http://www.filmweb.pl/serial/Cougar+Town%3A+Miasto+kocic-2009-492645
http://abc.go.com/shows/cougar-town

O P I S:

Serial opowiada o życiu czterdziestolatki Jules, która dopiero co się rozeszła z mężem i wychowuje siedemnastoletniego syna. Stawia czoła wszystkim swoim decyzjom i wydarzeniom w życiu. Za namową swojej przyjaciółki zaczyna żyć na nowo i umawiać się z facetami. 

O B S A D A:

Courteney Cox ... Jules Cobb
Christa Miller ... Ellie Torres
Dan Byrd ... Travis Cobb
Ian Gomez ... Andy Torres
Busy Philipps ... Laurie Keller
Brian Van Holt ... Bobby Cobb

Miasto.Kocic.S01E05.HDTV.XviD-RoR.Druzgocąca Lekcja.[Lektor PL].avi
Miasto.Kocic.S01E06.HDTV.XviD-RoR.Zakochana Kobieta (To Nie Ja).[Lektor PL].avi

Format : AVI
Format/Info : Audio Video Interleave
File size : 191 MiB
Duration : 20mn 38s
Overall bit rate : 1 293 Kbps
Writing application : VirtualDubMod 1.5.4.1 (build 2178/release)
Writing library : VirtualDubMod build 2178/release

Video
ID : 0
Format : MPEG-4 Visual
Format profile : Simple@L0
Format settings, BVOP : No
Format settings, QPel : No
Format settings, GMC : No warppoints
Format settings, Matrix : Default (H.263)
Codec ID : XVID
Codec ID/Hint : XviD
Duration : 20mn 38s
Bit rate : 1 061 Kbps
Width : 640 pixels
Height : 480 pixels
Display aspect ratio : 4:3
Frame rate : 25.000 fps
Color space : YUV
Chroma subsampling : 4:2:0
Bit depth : 8 bits
Scan type : Progressive
Compression mode : Lossy
Bits/(Pixel*Frame) : 0.138
Stream size : 157 MiB (82%)
Writing library : XviD 1.0.1 (UTC 2004-06-05)

Audio
ID : 1
Format : MPEG Audio
Format version : Version 1
Format profile : Layer 2
Codec ID : 50
Duration : 20mn 38s
Bit rate mode : Constant
Bit rate : 224 Kbps
Channel(s) : 2 channels
Sampling rate : 48.0 KHz
Compression mode : Lossy
Stream size : 33.1 MiB (17%)
Alignment : Aligned on interleaves
Interleave, duration : 80 ms (2.00 video frames)
Interleave, preload duration : 504 ms
Cougar.Town.S01.txt.PL.rar 260.257 KB
Miasto.Kocic.S01E05.HDTV.XviD-RoR.Druzgocąca Lekcja.[Lektor PL].avi 200.129 MB
Miasto.Kocic.S01E06.HDTV.XviD-RoR.Zakochana Kobieta (To Nie Ja).[Lektor PL].avi 200.139 MB
Gathering some info...

Register and log in Isohunt and see no captcha anymore!

4000 symbols left
Hash EA0C063BF46E66F9297FE3B0BB680086DE3B91AA

Related torrents for "Cougar Town S01E05E06 HDTV XviD-RoR [Lektor PL]"

Torrent search:

hdtv