The.Hobbit.An.Unexpected.Journey(2012)720p.Cam-RiP.XViD-4PlayHD

Size 733.506 MB   0 seeders     Added 2012-12-13 00:42:10

To download or stream you need BitLord. Visit them at BitLord.com

The.Hobbit:An.Unexpected.Journey(2012)720p.Cam-RiP.XViD-4PlayHD


A curious Hobbit, Bilbo Baggins, journeys to the Lonely Mountain with a vigorous group of Dwarves to reclaim a treasure stolen from them by the dragon Smaug.


video
ID                               : 0
Format                           : MPEG-4 Visual
Format profile                   : Advanced Simple@L5
Format settings, BVOP            : 2
Format settings, QPel            : No
Format settings, GMC             : No warppoints
Format settings, Matrix          : Default (MPEG)
Muxing mode                      : Packed bitstream
Codec ID                         : XVID
Codec ID/Hint                    : XviD
Bit rate                         : 2 511 Kbps
Width                            : 720 pixels
Height                           : 456 pixels
Display aspect ratio             : 2.500
Frame rate                       : 29.970 fps
Color space                      : YUV
Chroma subsampling               : 4:2:0
Bit depth                        : 8 bits
Scan type                        : Progressive
Compression mode                 : Lossy
Bits/(Pixel*Frame)               : 0.404
Stream size                      : 1.28 GiB (95%)
Writing library                  : XviD 64

Audio
ID                               : 1
Format                           : MPEG Audio
Format version                   : Version 1
Format profile                   : Layer 3
Mode                             : Joint stereo
Mode extension                   : MS Stereo
Codec ID                         : 55
Codec ID/Hint                    : MP3
Bit rate mode                    : Constant
Bit rate                         : 128 Kbps
Channel(s)                       : 2 channels
Sampling rate                    : 48.0 KHz
Compression mode                 : Lossy
Stream size                      : 66.7 MiB (5%)
Alignment                        : Split accross interleaves
Interleave, duration             : 33 ms (1.00 video frame)
Interleave, preload duration     : 500 ms
The.Hobbit.An.Unexpected.Journey(2012)720p.Cam-RiP.XViD-4PlayHD/nfo.nfo 2.077 KB
The.Hobbit.An.Unexpected.Journey(2012)720p.Cam-RiP.XViD-4PlayHD/The.Hobbit.An.Unexpected.Journey(2012)720p.Cam-RiP.XViD-4PlayHD/The.Hobbit.An.Unexpected.Journey(2012)720p.Cam-RiP.XViD-4PlayHD.rar 733.308 MB
The.Hobbit.An.Unexpected.Journey(2012)720p.Cam-RiP.XViD-4PlayHD/The.Hobbit.An.Unexpected.Journey(2012)720p.Cam-RiP.XViD-4PlayHD/the_hobbit_2-HD.jpg 194.76 KB
Gathering some info...

Register and log in Isohunt and see no captcha anymore!

4000 symbols left
Hash f87a473b5a0683cb92f1b6c07a8139d40f2f78bb

Related torrents for "The.Hobbit.An.Unexpected.Journey(2012)720p.Cam-RiP.XViD-4PlayHD"

Torrent search:

2012