Howzat Kerry Packers War 2012 BRRIP 1080P Parts 1 And 2

Size 4.299 GB   5 seeders     Added 2012-12-13 12:40:24

Stream torrent
Starting‥ You need BitLord! Get it from BitLord.com
To download or stream you need BitLord. Visit them at BitLord.com
INCLUDES DIRECTORS COMMENTARY


RUNTIME: 2 Hours 43 Minutes



Format                                   : Matroska
Format version                           : Version 2
File size                                : 3.98 GiB
Duration                                 : 2h 43mn
Overall bit rate                         : 3 490 Kbps
Writing application                      : HandBrake 0.9.8
Writing library                          : libmkv 0.6.5

Video
ID                                       : 1
Format                                   : AVC
Format/Info                              : Advanced Video Codec
Format profile                           : Main@L4.0
Format settings, CABAC                   : Yes
Format settings, ReFrames                : 4 frames
Codec ID                                 : V_MPEG4/ISO/AVC
Duration                                 : 2h 43mn
Bit rate                                 : 2 333 Kbps
Width                                    : 1 920 pixels
Height                                   : 1 080 pixels
Display aspect ratio                     : 16:9
Frame rate mode                          : Constant
Frame rate                               : 25.000 fps
Color space                              : YUV
Chroma subsampling                       : 4:2:0
Bit depth                                : 8 bits
Scan type                                : Progressive
Bits/(Pixel*Frame)                       : 0.045
Stream size                              : 2.66 GiB (67%)
Writing library                          : x264 core 120
Encoding settings                        : cabac=1 / ref=1 / deblock=1:0:0 / 
Language                                 : English
Default                                  : Yes
Forced                                   : No
Color primaries                          : BT.709
Transfer characteristics                 : BT.709
Matrix coefficients                      : BT.709

Audio #1
ID                                       : 2
Format                                   : AC-3
Format/Info                              : Audio Coding 3
Mode extension                           : CM (complete main)
Format settings, Endianness              : Big
Codec ID                                 : A_AC3
Duration                                 : 2h 43mn
Bit rate mode                            : Constant
Bit rate                                 : 640 Kbps
Channel(s)                               : 6 channels
Channel positions                        : Front: L C R, Side: L R, LFE
Sampling rate                            : 48.0 KHz
Bit depth                                : 16 bits
Compression mode                         : Lossy
Stream size                              : 748 MiB (18%)
Language                                 : English
Default                                  : Yes
Forced                                   : No
 " border="0" alt="Howzat! Kerry Packer's War Part 1 And 2 preview 1"/>
 " border="0" alt="Howzat! Kerry Packer's War Part 1 And 2 preview 1"/>
 


The Story of how world series cricket got started-------------------------------------Torrent downloaded from http://thepiratebay.se
Howzat D1.title0-1.mkv 4.278 GB
HOWZAT_D1.Title0.idx 122.055 KB
HOWZAT_D1.Title0.sub 20.449 MB
Gathering some info...

Register and log in Isohunt and see no captcha anymore!

4000 symbols left
Hash 3627FD741DAAE9FD762DEA1F3C4EF5DE0BCC9556

Related torrents for "Howzat Kerry Packers War 2012 BRRIP 1080P Parts 1 And 2"

Torrent search:

2012 fullhd bd