The Church - Priest=Aura(1992)-FLAC

Size 422.446 MB   2 seeders     Added 2012-12-14 02:40:51

Stream torrent
Starting‚Ä• You need BitLord! Get it from BitLord.com
To download or stream you need BitLord. Visit them at BitLord.com
Ripped in Sound-juicer on Ubuntu.

[image=rjq3Ny8uLx]
[image=m4vEu0pZkr]
[image=RhrvDV4zjQ]

http://www.discogs.com/Church-Priest-Aura/release/620326

 Tracklist
1 		Aura 	6:59 	
2 		Ripple 	6:03 	
3 		Paradox 	3:59 	
4 		Lustre 	5:45 	
5 		Swan Lake 	2:26 	
6 		Feel 	3:55 	
7 		Mistress 	4:12 	
8 		Kings 	4:35 	
9 		Dome 	4:00 	
10 		Witch Hunt 	1:27 	
11 		The Disillusionist 	6:24 	
12 		Old Flame 	1:37 	
13 		Chaos 	9:34 	
14 		Film 	3:56

Enjoy! :)

General
Complete name : /media/night/The Church - Priest=Aura(1992)-FLAC/1 - Aura.flac
Format : FLAC
Format/Info : Free Lossless Audio Codec
File size : 44.2 MiB
Duration : 7mn 0s
Overall bit rate mode : Variable
Overall bit rate : 881 Kbps
Album : Priest = Aura
Album/Performer : The Church
Part : 1
Track name : Aura
Track name/Position : 1
Track name/Total : 14
Performer : The Church
Recorded date : 2005-01-01
ALBUMARTISTSORT : Church, The
ARTISTSORT : Church, The

Audio
Format : FLAC
Format/Info : Free Lossless Audio Codec
Duration : 7mn 0s
Bit rate mode : Variable
Bit rate : 881 Kbps
Channel(s) : 2 channels
Sampling rate : 44.1 KHz
Bit depth : 16 bits
Stream size : 44.2 MiB (100%)
Writing library : GStreamer encoded vorbiscomment

General
Complete name : /media/night/The Church - Priest=Aura(1992)-FLAC/10 - Witch Hunt.flac
Format : FLAC
Format/Info : Free Lossless Audio Codec
File size : 8.31 MiB
Duration : 1mn 28s
Overall bit rate mode : Variable
Overall bit rate : 789 Kbps
Album : Priest = Aura
Album/Performer : The Church
Part : 1
Track name : Witch Hunt
Track name/Position : 10
Track name/Total : 14
Performer : The Church
Recorded date : 2005-01-01
ALBUMARTISTSORT : Church, The
ARTISTSORT : Church, The

Audio
Format : FLAC
Format/Info : Free Lossless Audio Codec
Duration : 1mn 28s
Bit rate mode : Variable
Bit rate : 789 Kbps
Channel(s) : 2 channels
Sampling rate : 44.1 KHz
Bit depth : 16 bits
Stream size : 8.31 MiB (100%)
Writing library : GStreamer encoded vorbiscomment

General
Complete name : /media/night/The Church - Priest=Aura(1992)-FLAC/11 - The Disillusionist.flac
Format : FLAC
Format/Info : Free Lossless Audio Codec
File size : 40.4 MiB
Duration : 6mn 24s
Overall bit rate mode : Variable
Overall bit rate : 882 Kbps
Album : Priest = Aura
Album/Performer : The Church
Part : 1
Track name : The Disillusionist
Track name/Position : 11
Track name/Total : 14
Performer : The Church
Recorded date : 2005-01-01
ALBUMARTISTSORT : Church, The
ARTISTSORT : Church, The

Audio
Format : FLAC
Format/Info : Free Lossless Audio Codec
Duration : 6mn 24s
Bit rate mode : Variable
Bit rate : 882 Kbps
Channel(s) : 2 channels
Sampling rate : 44.1 KHz
Bit depth : 16 bits
Stream size : 40.4 MiB (100%)
Writing library : GStreamer encoded vorbiscomment

General
Complete name : /media/night/The Church - Priest=Aura(1992)-FLAC/12 - Old Flame.flac
Format : FLAC
Format/Info : Free Lossless Audio Codec
File size : 7.97 MiB
Duration : 1mn 37s
Overall bit rate mode : Variable
Overall bit rate : 684 Kbps
Album : Priest = Aura
Album/Performer : The Church
Part : 1
Track name : Old Flame
Track name/Position : 12
Track name/Total : 14
Performer : The Church
Recorded date : 2005-01-01
ALBUMARTISTSORT : Church, The
ARTISTSORT : Church, The

Audio
Format : FLAC
Format/Info : Free Lossless Audio Codec
Duration : 1mn 37s
Bit rate mode : Variable
Bit rate : 684 Kbps
Channel(s) : 2 channels
Sampling rate : 44.1 KHz
Bit depth : 16 bits
Stream size : 7.97 MiB (100%)
Writing library : GStreamer encoded vorbiscomment

General
Complete name : /media/night/The Church - Priest=Aura(1992)-FLAC/13 - Chaos.flac
Format : FLAC
Format/Info : Free Lossless Audio Codec
File size : 57.8 MiB
Duration : 9mn 35s
Overall bit rate mode : Variable
Overall bit rate : 843 Kbps
Album : Priest = Aura
Album/Performer : The Church
Part : 1
Track name : Chaos
Track name/Position : 13
Track name/Total : 14
Performer : The Church
Recorded date : 2005-01-01
ALBUMARTISTSORT : Church, The
ARTISTSORT : Church, The

Audio
Format : FLAC
Format/Info : Free Lossless Audio Codec
Duration : 9mn 35s
Bit rate mode : Variable
Bit rate : 843 Kbps
Channel(s) : 2 channels
Sampling rate : 44.1 KHz
Bit depth : 16 bits
Stream size : 57.8 MiB (100%)
Writing library : GStreamer encoded vorbiscomment

General
Complete name : /media/night/The Church - Priest=Aura(1992)-FLAC/14 - Film.flac
Format : FLAC
Format/Info : Free Lossless Audio Codec
File size : 22.0 MiB
Duration : 3mn 56s
Overall bit rate mode : Variable
Overall bit rate : 782 Kbps
Album : Priest = Aura
Album/Performer : The Church
Part : 1
Track name : Film
Track name/Position : 14
Track name/Total : 14
Performer : The Church
Recorded date : 2005-01-01
ALBUMARTISTSORT : Church, The
ARTISTSORT : Church, The

Audio
Format : FLAC
Format/Info : Free Lossless Audio Codec
Duration : 3mn 56s
Bit rate mode : Variable
Bit rate : 782 Kbps
Channel(s) : 2 channels
Sampling rate : 44.1 KHz
Bit depth : 16 bits
Stream size : 22.0 MiB (100%)
Writing library : GStreamer encoded vorbiscomment

General
Complete name : /media/night/The Church - Priest=Aura(1992)-FLAC/2 - Ripple.flac
Format : FLAC
Format/Info : Free Lossless Audio Codec
File size : 39.5 MiB
Duration : 6mn 3s
Overall bit rate mode : Variable
Overall bit rate : 911 Kbps
Album : Priest = Aura
Album/Performer : The Church
Part : 1
Track name : Ripple
Track name/Position : 2
Track name/Total : 14
Performer : The Church
Recorded date : 2005-01-01
ALBUMARTISTSORT : Church, The
ARTISTSORT : Church, The

Audio
Format : FLAC
Format/Info : Free Lossless Audio Codec
Duration : 6mn 3s
Bit rate mode : Variable
Bit rate : 911 Kbps
Channel(s) : 2 channels
Sampling rate : 44.1 KHz
Bit depth : 16 bits
Stream size : 39.5 MiB (100%)
Writing library : GStreamer encoded vorbiscomment

General
Complete name : /media/night/The Church - Priest=Aura(1992)-FLAC/3 - Paradox.flac
Format : FLAC
Format/Info : Free Lossless Audio Codec
File size : 25.2 MiB
Duration : 4mn 0s
Overall bit rate mode : Variable
Overall bit rate : 879 Kbps
Album : Priest = Aura
Album/Performer : The Church
Part : 1
Track name : Paradox
Track name/Position : 3
Track name/Total : 14
Performer : The Church
Recorded date : 2005-01-01
ALBUMARTISTSORT : Church, The
ARTISTSORT : Church, The

Audio
Format : FLAC
Format/Info : Free Lossless Audio Codec
Duration : 4mn 0s
Bit rate mode : Variable
Bit rate : 879 Kbps
Channel(s) : 2 channels
Sampling rate : 44.1 KHz
Bit depth : 16 bits
Stream size : 25.2 MiB (100%)
Writing library : GStreamer encoded vorbiscomment

General
Complete name : /media/night/The Church - Priest=Aura(1992)-FLAC/4 - Lustre.flac
Format : FLAC
Format/Info : Free Lossless Audio Codec
File size : 35.4 MiB
Duration : 5mn 45s
Overall bit rate mode : Variable
Overall bit rate : 860 Kbps
Album : Priest = Aura
Album/Performer : The Church
Part : 1
Track name : Lustre
Track name/Position : 4
Track name/Total : 14
Performer : The Church
Recorded date : 2005-01-01
ALBUMARTISTSORT : Church, The
ARTISTSORT : Church, The

Audio
Format : FLAC
Format/Info : Free Lossless Audio Codec
Duration : 5mn 45s
Bit rate mode : Variable
Bit rate : 860 Kbps
Channel(s) : 2 channels
Sampling rate : 44.1 KHz
Bit depth : 16 bits
Stream size : 35.4 MiB (100%)
Writing library : GStreamer encoded vorbiscomment

General
Complete name : /media/night/The Church - Priest=Aura(1992)-FLAC/5 - Swan Lake.flac
Format : FLAC
Format/Info : Free Lossless Audio Codec
File size : 13.4 MiB
Duration : 2mn 26s
Overall bit rate mode : Variable
Overall bit rate : 769 Kbps
Album : Priest = Aura
Album/Performer : The Church
Part : 1
Track name : Swan Lake
Track name/Position : 5
Track name/Total : 14
Performer : The Church
Recorded date : 2005-01-01
ALBUMARTISTSORT : Church, The
ARTISTSORT : Church, The

Audio
Format : FLAC
Format/Info : Free Lossless Audio Codec
Duration : 2mn 26s
Bit rate mode : Variable
Bit rate : 769 Kbps
Channel(s) : 2 channels
Sampling rate : 44.1 KHz
Bit depth : 16 bits
Stream size : 13.4 MiB (100%)
Writing library : GStreamer encoded vorbiscomment

General
Complete name : /media/night/The Church - Priest=Aura(1992)-FLAC/6 - Feel.flac
Format : FLAC
Format/Info : Free Lossless Audio Codec
File size : 24.7 MiB
Duration : 3mn 55s
Overall bit rate mode : Variable
Overall bit rate : 881 Kbps
Album : Priest = Aura
Album/Performer : The Church
Part : 1
Track name : Feel
Track name/Position : 6
Track name/Total : 14
Performer : The Church
Recorded date : 2005-01-01
ALBUMARTISTSORT : Church, The
ARTISTSORT : Church, The

Audio
Format : FLAC
Format/Info : Free Lossless Audio Codec
Duration : 3mn 55s
Bit rate mode : Variable
Bit rate : 881 Kbps
Channel(s) : 2 channels
Sampling rate : 44.1 KHz
Bit depth : 16 bits
Stream size : 24.7 MiB (100%)
Writing library : GStreamer encoded vorbiscomment

General
Complete name : /media/night/The Church - Priest=Aura(1992)-FLAC/7 - Mistress.flac
Format : FLAC
Format/Info : Free Lossless Audio Codec
File size : 26.7 MiB
Duration : 4mn 12s
Overall bit rate mode : Variable
Overall bit rate : 886 Kbps
Album : Priest = Aura
Album/Performer : The Church
Part : 1
Track name : Mistress
Track name/Position : 7
Track name/Total : 14
Performer : The Church
Recorded date : 2005-01-01
ALBUMARTISTSORT : Church, The
ARTISTSORT : Church, The

Audio
Format : FLAC
Format/Info : Free Lossless Audio Codec
Duration : 4mn 12s
Bit rate mode : Variable
Bit rate : 886 Kbps
Channel(s) : 2 channels
Sampling rate : 44.1 KHz
Bit depth : 16 bits
Stream size : 26.7 MiB (100%)
Writing library : GStreamer encoded vorbiscomment

General
Complete name : /media/night/The Church - Priest=Aura(1992)-FLAC/8 - Kings.flac
Format : FLAC
Format/Info : Free Lossless Audio Codec
File size : 31.6 MiB
Duration : 4mn 34s
Overall bit rate mode : Variable
Overall bit rate : 966 Kbps
Album : Priest = Aura
Album/Performer : The Church
Part : 1
Track name : Kings
Track name/Position : 8
Track name/Total : 14
Performer : The Church
Recorded date : 2005-01-01
ALBUMARTISTSORT : Church, The
ARTISTSORT : Church, The

Audio
Format : FLAC
Format/Info : Free Lossless Audio Codec
Duration : 4mn 34s
Bit rate mode : Variable
Bit rate : 966 Kbps
Channel(s) : 2 channels
Sampling rate : 44.1 KHz
Bit depth : 16 bits
Stream size : 31.6 MiB (100%)
Writing library : GStreamer encoded vorbiscomment

General
Complete name : /media/night/The Church - Priest=Aura(1992)-FLAC/9 - Dome.flac
Format : FLAC
Format/Info : Free Lossless Audio Codec
File size : 25.7 MiB
Duration : 4mn 0s
Overall bit rate mode : Variable
Overall bit rate : 894 Kbps
Album : Priest = Aura
Album/Performer : The Church
Part : 1
Track name : Dome
Track name/Position : 9
Track name/Total : 14
Performer : The Church
Recorded date : 2005-01-01
ALBUMARTISTSORT : Church, The
ARTISTSORT : Church, The

Audio
Format : FLAC
Format/Info : Free Lossless Audio Codec
Duration : 4mn 0s
Bit rate mode : Variable
Bit rate : 894 Kbps
Channel(s) : 2 channels
Sampling rate : 44.1 KHz
Bit depth : 16 bits
Stream size : 25.7 MiB (100%)
Writing library : GStreamer encoded vorbiscomment

1 - Aura.flac 46.332 MB
10 - Witch Hunt.flac 8.713 MB
11 - The Disillusionist.flac 42.404 MB
Gathering some info...

Register and log in Isohunt and see no captcha anymore!

4000 symbols left
Hash EDCDB72B791E901FA2BD6D7387476A20B5FD1D8E