Gajapokkiri (2012) Malayalam Movie DVDRip XviD Esubs - Exclusive

Size 1.182 GB   10 seeders     Added 2012-12-14 16:01:08

Stream torrent
Starting‥ You need BitLord! Get it from BitLord.com
10
To download or stream you need BitLord. Visit them at BitLord.com
[img]image[/img]

Info:

Format : AVI
Format/Info : Audio Video Interleave
Format profile : OpenDML
File size : 1.09 GiB
Duration : 2h 27mn
Overall bit rate : 1 060 Kbps
Movie name : GAJAPOKKIRI.Title2.DVDRip
Writing application : Lavf52.78.4
Original source form/Name : GAJAPOKKIRI

Video
ID : 0
Format : MPEG-4 Visual
Format profile : Advanced Simple@L5
Format settings, BVOP : 2
Format settings, QPel : No
Format settings, GMC : No warppoints
Format settings, Matrix : Default (H.263)
Muxing mode : Packed bitstream
Codec ID : DX50
Codec ID/Hint : DivX 5
Duration : 2h 27mn
Bit rate : 980 Kbps
Width : 720 pixels
Height : 316 pixels
Display aspect ratio : 2.25:1
Frame rate : 23.976 fps
Color space : YUV
Chroma subsampling : 4:2:0
Bit depth : 8 bits
Scan type : Progressive
Compression mode : Lossy
Bits/(Pixel*Frame) : 0.180
Stream size : 1.01 GiB (92%)
Writing library : XviD 1.2.1 (UTC 2008-12-04)

Audio
ID : 1
Format : MPEG Audio
Format version : Version 1
Format profile : Layer 3
Mode : Joint stereo
Mode extension : MS Stereo
Codec ID : 55
Codec ID/Hint : MP3
Duration : 2h 27mn
Bit rate mode : Constant
Bit rate : 64.0 Kbps
Channel(s) : 2 channels
Sampling rate : 48.0 KHz
Compression mode : Lossy
Stream size : 67.5 MiB (6%)
Alignment : Aligned on interleaves
Interleave, duration : 24 ms (0.58 video frame)
Interleave, preload duration : 24 ms
Writing library : LAME3.98.4

Screens:

[img]image[/img]
[img]image[/img]
[img]image[/img]
[img]image[/img]
[img]image[/img]
Gajapokkiri (2012) Malayalam Movie DVDRip XviD Esubs - Exclusive.avi 1.173 GB
Gajapokkiri (2012) Malayalam Movie DVDRip XviD Esubs - Exclusive.idx 90.734 KB
Gajapokkiri (2012) Malayalam Movie DVDRip XviD Esubs - Exclusive.sub 8.659 MB
Gathering some info...

Register and log in Isohunt and see no captcha anymore!

4000 symbols left
Hash 77603B0BCC0D199F1B8B538706E82C463C671297