Революция Z

Революция Z (2014)

Full description

Revolution Z - S01E08 avi

Size 525.139 MB   2 seeders     Added 2012-12-14 22:36:47

Stream torrent
Starting‥ You need BitLord! Get it from BitLord.com
To download or stream you need BitLord. Visit them at BitLord.com
HQ WebRip


Format                                   : AVI
Format/Info                              : Audio Video Interleave
File size                                : 501 MiB
Duration                                 : 47mn 36s
Overall bit rate                         : 1 471 Kbps
Writing application                      : Lavf52.84.0

Video
ID                                       : 0
Format                                   : xvid
Codec ID                                 : xvid
Duration                                 : 47mn 36s
Bit rate                                 : 1 332 Kbps
Width                                    : 720 pixels
Height                                   : 400 pixels
Display aspect ratio                     : 16:9
Frame rate                               : 25.000 fps
Bits/(Pixel*Frame)                       : 0.185
Stream size                              : 453 MiB (91%)

Audio
ID                                       : 1
Format                                   : AC-3
Format/Info                              : Audio Coding 3
Mode extension                           : CM (complete main)
Format settings, Endianness              : Big
Codec ID                                 : 2000
Duration                                 : 47mn 36s
Bit rate mode                            : Constant
Bit rate                                 : 128 Kbps
Channel(s)                               : 2 channels
Channel positions                        : Front: L R
Sampling rate                            : 48.0 KHz
Bit depth                                : 16 bits
Compression mode                         : Lossy
Stream size                              : 43.6 MiB (9%)
Alignment                                : Aligned on interleaves
Interleave, duration                     : 32 ms (0.80 video frame)-------------------------------------Torrent downloaded from http://thepiratebay.se
Revolution Z - S01E08.avi 525.139 MB
Gathering some info...

Register and log in Isohunt and see no captcha anymore!

4000 symbols left
Hash 1D8EFB229FBE1898D6F9F97E68B58ABA27B36D1D

Related torrents for "Revolution Z - S01E08 avi"

Torrent search:

season 01 episode 08