imdb
rating

7.0
ParaNorman

ParaNorman (2012)

Adventure, Animation, Comedy, Family

Full description
quality   dvdrip dvd screener bd x264 hd

Paranorman 2012 576 BRRip XViD GR AUDIO AC3-KUTeam

Size 1.518 GB   3 seeders     Added 2012-12-14 22:36:54

Stream torrent
Starting‥ You need BitLord! Get it from BitLord.com
To download or stream you need BitLord. Visit them at BitLord.com
[align=center][b][size=6][color=limegreen][/color][/b][/size]
[b][size=5][color=Slategray]Paranorman 2012
ParaNorman:   
[/color][/b][/size]





[size=3][color=Crimson] 	
 : Animation | Adventure | Comedy
 : 13 September 2012
: Chris Butler, Sam Fell
: Chris Butler
: Kodi Smit-McPhee, Anna Kendrick and Christopher Mintz-Plasse
: 92 
 :     
Imdb: 7.5/10
[/color]


[size=3][color=Lightgrey]
  ,  11 ,       ,                       (, , )      . ,  ,                   ,     , .                     ,   , ,            .[/color][/size]



image





[b][size=3][color=Rosybrown]
BRRRip By: C0r3y [KUTeam]
Kam.Upload Team For MyDLmS.Com
[/color][/b][/size]






[b][color=grey][size=2]
General
Complete name                    : Paranorman.2012.576.BRRip.XViD.GR.AUDIO.AC3-KUTeam.avi
Format                           : AVI
Format/Info                      : Audio Video Interleave
File size                        : 1.41 GiB
Duration                         : 1h 28mn
Overall bit rate                 : 2 287 Kbps
Writing application              : VirtualDubMod 1.5.10.2 (build 2542/release)
Writing library                  : VirtualDubMod build 2542/release

Video
ID                               : 0
Format                           : MPEG-4 Visual
Format profile                   : Advanced Simple@L5
Format settings, BVOP            : 1
Format settings, QPel            : No
Format settings, GMC             : No warppoints
Format settings, Matrix          : Default (H.263)
Muxing mode                      : Packed bitstream
Codec ID                         : XVID
Codec ID/Hint                    : XviD
Duration                         : 1h 28mn
Bit rate                         : 1 895 Kbps
Width                            : 1 024 pixels
Height                           : 432 pixels
Display aspect ratio             : 2.35:1
Frame rate                       : 25.000 fps
Color space                      : YUV
Chroma subsampling               : 4:2:0
Bit depth                        : 8 bits
Scan type                        : Progressive
Compression mode                 : Lossy
Bits/(Pixel*Frame)               : 0.171
Stream size                      : 1.17 GiB (83%)
Writing library                  : XviD 64

Audio
ID                               : 1
Format                           : AC-3
Format/Info                      : Audio Coding 3
Mode extension                   : CM (complete main)
Codec ID                         : 2000
Duration                         : 1h 28mn
Bit rate mode                    : Constant
Bit rate                         : 384 Kbps
Channel(s)                       : 6 channels
Channel positions                : Front: L C R, Side: L R, LFE
Sampling rate                    : 48.0 KHz
Bit depth                        : 16 bits
Compression mode                 : Lossy
Stream size                      : 243 MiB (17%)
Alignment                        : Split accross interleaves
Interleave, duration             : 64 ms (1.60 video frames)
Interleave, preload duration     : 500 ms
[/size][/color][/b]-------------------------------------Torrent downloaded from http://thepiratebay.se
ParaNorman.2012.576.BRRip.XViD.GR.AUDIO.AC3-KUTeam.avi 1.518 GB
Gathering some info...

Register and log in Isohunt and see no captcha anymore!

4000 symbols left
Hash 0BF3B3BED77A308DB0DBD965DF1E7DFE4F2C917D

Related torrents for "Paranorman 2012 576 BRRip XViD GR AUDIO AC3-KUTeam"

Torrent search:

2012 bd