imdb
rating

5.7
The King Is Dead!

The King Is Dead! (2012)

Drama

Full description
quality   x264 hd bd dvdrip fullhd screener

The King Is Dead 2012 BRRip XViD UNiQUE

Size 1.558 GB   8 seeders     Added 2012-12-15 02:20:25

Stream torrent
Starting‥ You need BitLord! Get it from 1BitLord.com
To download or stream you need BitLord. Visit them at BitLord.com
[img]image[/img]

Info:

Format : AVI
Format/Info : Audio Video Interleave
File size : 1.43 GiB
Duration : 1h 46mn
Overall bit rate : 1 932 Kbps
Writing application : VirtualDubMod 1.5.10.2 (build 2540/release)
Writing library : VirtualDubMod build 2540/release

Video
ID : 0
Format : MPEG-4 Visual
Format profile : Advanced Simple@L5
Format settings, BVOP : 2
Format settings, QPel : No
Format settings, GMC : No warppoints
Format settings, Matrix : Default (H.263)
Muxing mode : Packed bitstream
Codec ID : XVID
Codec ID/Hint : XviD
Duration : 1h 46mn
Bit rate : 1 538 Kbps
Width : 720 pixels
Height : 384 pixels
Display aspect ratio : 1.85:1
Frame rate : 23.976 fps
Color space : YUV
Chroma subsampling : 4:2:0
Bit depth : 8 bits
Scan type : Progressive
Compression mode : Lossy
Bits/(Pixel*Frame) : 0.232
Stream size : 1.14 GiB (80%)
Writing library : XviD 64

Audio
ID : 1
Format : AC-3
Format/Info : Audio Coding 3
Mode extension : CM (complete main)
Format settings, Endianness : Big
Codec ID : 2000
Duration : 1h 46mn
Bit rate mode : Constant
Bit rate : 384 Kbps
Channel(s) : 6 channels
Channel positions : Front: L C R, Side: L R, LFE
Sampling rate : 48.0 KHz
Bit depth : 16 bits
Compression mode : Lossy
Stream size : 292 MiB (20%)
Alignment : Split accross interleaves
Interleave, duration : 42 ms (1.00 video frame)
Interleave, preload duration : 500 ms






http://uk.imdb.com/title/tt2072263/




Max and Therese have just brought a new house in a leafy suburb. Their suburban dreams are quickly shattered when they find they have the neighbours from hell. The unruly neighbours are loud, uncouth and unrelenting in their endeavours to engage in loud music, violent dispositions and drug dealings. Their ringleader is a man named King with two sidekicks Shrek and Escobar, who are equally despicable.

After no help from the authoriesties and riven by desperation, Max and Therese plot to make things extremely difficult for King. The plot goes haywire and before they even realise it the couple end up with a corpse on their hands.



Source Used ..................The King Is Dead 2012 720p BluRay x264-PFa..........................Thanks




Screens:
[img]image[/img]
[img]image[/img]
[img]image[/img]
readme.txt 29 B
sample.avi 18.297 MB
The King Is Dead 2012 BRRip XViD UNiQUE.avi 1.54 GB
Gathering some info...

Register and log in Isohunt and see no captcha anymore!

4000 symbols left
Hash 9C3F032F5209F110B451FD423F643DDD3D7816F1

Related torrents for "The King Is Dead 2012 BRRip XViD UNiQUE"

Torrent search:

2012 bd