NarutoNewHokageSasukesDecision mp4

Size 2.291 GB   1 seeders     Added 2012-12-15 11:41:28

Stream torrent
Starting‚Ä• You need BitLord! Get it from BitLord.com
To download or stream you need BitLord. Visit them at BitLord.com
Naruto Episodes 98-113, minus filler (101-107)

Edited to omit intros/outros and promote continuity.

Please SEED and enjoy! Leave a comment if you like.

Format                                   : MPEG-4
Codec ID                                 : M4V 
File size                                : 2.13 GiB
Duration                                 : 3h 14mn
Overall bit rate mode                    : Variable
Overall bit rate                         : 1 570 Kbps
Encoded date                             : UTC 2012-12-15 03:39:33

Video
ID                                       : 1
Format                                   : AVC
Format/Info                              : Advanced Video Codec
Format profile                           : Baseline@L3.0
Format settings, CABAC                   : No
Format settings, ReFrames                : 2 frames
Codec ID                                 : avc1
Codec ID/Info                            : Advanced Video Coding
Duration                                 : 3h 14mn
Source duration                          : 3h 14mn
Bit rate mode                            : Variable
Bit rate                                 : 1 442 Kbps
Width                                    : 640 pixels
Height                                   : 480 pixels
Display aspect ratio                     : 4:3
Frame rate mode                          : Variable
Frame rate                               : 23.976 fps
Minimum frame rate                       : 23.976 fps
Maximum frame rate                       : 24.000 fps
Standard                                 : NTSC
Color space                              : YUV
Chroma subsampling                       : 4:2:0
Bit depth                                : 8 bits
Scan type                                : Progressive
Bits/(Pixel*Frame)                       : 0.196
Stream size                              : 1.96 GiB (92%)
Source stream size                       : 1.96 GiB (92%)
Language                                 : English
Encoded date                             : UTC 2012-12-15 03:39:33

Audio
ID                                       : 2
Format                                   : AAC
Format/Info                              : Advanced Audio Codec
Format profile                           : LC
Codec ID                                 : 40
Duration                                 : 3h 14mn
Source duration                          : 3h 14mn
Bit rate mode                            : Variable
Bit rate                                 : 126 Kbps
Maximum bit rate                         : 210 Kbps
Channel(s)                               : 2 channels
Channel positions                        : Front: L R
Sampling rate                            : 44.1 KHz
Compression mode                         : Lossy
Stream size                              : 175 MiB (8%)		
NarutoNewHokageSasukesDecision.mp4 2.291 GB
Gathering some info...

Register and log in Isohunt and see no captcha anymore!

4000 symbols left
Hash 12A7065822717405D115F6CBA5416C131E1F29FF