Les Infideles (2012) FRENCH DVDRip XviD - 3PsiLoN

Size 741.99 MB   0 seeders     Added 2012-12-15 17:57:07

To download or stream you need BitLord. Visit them at BitLord.com
 Les Infideles  (2012) FRENCH DVDRip XviD - 3PsiLoN

STATS:

Video
ID                               : 0
Format                           : MPEG-4 Visual
Format profile                   : Advanced Simple@L5
Format settings, BVOP            : 2
Format settings, QPel            : No
Format settings, GMC             : No warppoints
Format settings, Matrix          : Default (MPEG)
Muxing mode                      : Packed bitstream
Codec ID                         : XVID
Codec ID/Hint                    : XviD
Duration                         : 1h 36mn
Bit rate                         : 986 Kbps
Width                            : 720 pixels
Height                           : 320 pixels
Display aspect ratio             : 2.25:1
Frame rate                       : 29.970 fps
Color space                      : YUV
Chroma subsampling               : 4:2:0
Bit depth                        : 8 bits
Scan type                        : Progressive
Compression mode                 : Lossy
Bits/(Pixel*Frame)               : 0.243
Stream size                      : 705 MiB (92%)
Writing library                  : XviD 64

Audio

Format                           : MPEG Audio
Format version                   : Version 1
Format profile                   : Layer 3
Mode                             : Joint stereo
Mode extension                   : MS Stereo
Codec ID                         : 55
Codec ID/Hint                    : MP3
Duration                         : 1h 36mn
Bit rate mode                    : Constant
Bit rate                         : 128 Kbps
Channel(s)                       : 2 channels
Sampling rate                    : 48.0 KHz
Compression mode                 : Lossy
Stream size                      : 52 MiB (7%)
Alignment                        : Split accross interleaves
Interleave, duration             : 33 ms (1.00 video frame)
Interleave, preload duration     : 500 ms
          
                         
Les Infidèles (2012) FRENCH DVDRip XviD - 3PsiLoN/cover.jpg 371.221 KB
Les Infidèles (2012) FRENCH DVDRip XviD - 3PsiLoN/Les Infidèles (2012) FRENCH DVDRip XviD - 3PsiLoN.nfo 1.997 KB
Les Infidèles (2012) FRENCH DVDRip XviD - 3PsiLoN/Les Infidèles (2012) FRENCH DVDRip XviD - 3PsiLoN/Les Infidèles (2012) FRENCH DVDRip XviD - 3PsiLoN.rar 739.612 MB
Gathering some info...

Register and log in Isohunt and see no captcha anymore!

4000 symbols left
Hash 07ed7e82c90e8aba422589ea168ab5d9551c4541