imdb
rating

7.2
Kon-Tiki

Kon-Tiki (2012)

Adventure, History

Full description
quality   bd dvdrip hd dvdr x264 fullhd

Kon-Tiki 2012 DVDRip Norwegian Eng Sub [Accipiter]

Size 1.458 GB   26 seeders     Added 2012-12-16 19:40:30

Stream torrent
Starting‥ You need BitLord! Get it from 1BitLord.com
To download or stream you need BitLord. Visit them at BitLord.com
[img]image[/img]

[b]Cover:[/b]

[img]image[/img]

[b]Release info:[/b]

[code]General
Format : Matroska
Format version : Version 2
File size : 1.36 GiB
Duration : 1h 53mn
Overall bit rate : 1 706 Kbps

Video
ID : 2
Format : MPEG-4 Visual
Format profile : Advanced Simple@L5
Format settings, BVOP : Yes
Format settings, QPel : No
Format settings, GMC : No warppoints
Format settings, Matrix : Default (H.263)
Codec ID : V_MS/VFW/FOURCC / XVID
Codec ID/Hint : XviD
Duration : 1h 53mn
Bit rate : 1 480 Kbps
Width : 720 pixels
Height : 304 pixels
Display aspect ratio : 2.35:1
Frame rate mode : Constant
Frame rate : 25.000 fps
Color space : YUV
Chroma subsampling : 4:2:0
Bit depth : 8 bits
Scan type : Progressive
Compression mode : Lossy
Bits/(Pixel*Frame) : 0.271
Stream size : 1.18 GiB (87%)
Writing library : XviD 64
Language : Norwegian
Default : Yes
Forced : No

Audio
ID : 3
Format : AC-3
Format/Info : Audio Coding 3
Mode extension : CM (complete main)
Format settings, Endianness : Big
Muxing mode : Header stripping
Codec ID : A_AC3
Duration : 1h 53mn
Bit rate mode : Constant
Bit rate : 192 Kbps
Channel(s) : 2 channels
Channel positions : Front: L R
Sampling rate : 48.0 KHz
Bit depth : 16 bits
Compression mode : Lossy
Stream size : 156 MiB (11%)
Language : Norwegian
Default : Yes
Forced : No

Text
ID : 1
Format : UTF-8
Codec ID : S_TEXT/UTF8
Codec ID/Info : UTF-8 Plain Text
Language : English
Default : Yes
Forced : No


Source:
credit to original movie ripper NEWERA (Thanks)[/code]

[b]IMDB Info:[/b]

[code]The legendary explorer Thor Heyerdal's epic 4,300 miles crossing of the Pacific on a balsa wood raft in 1947, to prove that this could have been done in pre-Columbian times for South Americans to settle in Polynesia.

Directors: Joachim Rønning, Espen Sandberg
Writers: Petter Skavlan, Allan Scott (script consultant)
Stars: Pål Sverre Valheim Hagen, Anders Baasmo Christiansen and Gustaf Skarsgård

Genres: Action | Adventure | Biography | Drama | History[/code]

http://www.imdb.com/title/tt1613750/

[b]Screen Shot:[/b]

[img]image[/img]
[img]image[/img]
[img]image[/img]
[img]image[/img]
[img]image[/img]
[img]image[/img]
[img]image[/img]
[img]image[/img]
Kon-Tiki 2012 DVDRip Norwegian Eng Sub [Accipiter].mkv 1.458 GB
Torrent Downloaded From Digtorrent.org.txt 346 B
Torrent downloaded from souravfile torrents on BTScene.eu.txt 69 B
Gathering some info...

Register and log in Isohunt and see no captcha anymore!

4000 symbols left
Hash 171F40C5BFE633DE533C57D916356F0D3503C578

Related torrents for "Kon-Tiki 2012 DVDRip Norwegian Eng Sub [Accipiter]"

Torrent search:

dvdrip english 2012