imdb
rating

3.5
Nipples & Palm Trees

Nipples & Palm Trees (2012)

Full description
quality   dvdrip

[18+] Nipples and Palm Trees 2012 DVDRip English [Accipiter]

Size 729.617 MB   0 seeders     Added 2012-12-16 19:40:34

Stream torrent
Starting‥ You need BitLord! Get it from BitLord.com
10
To download or stream you need BitLord. Visit them at BitLord.com
[img]image[/img]

[b]Cover:[/b]

[img]image[/img]

[b]Release info:[/b]

[code]General
Format : Matroska
Format version : Version 2
File size : 696 MiB
Duration : 1h 29mn
Overall bit rate : 1 085 Kbps

Video
ID : 1
Format : MPEG-4 Visual
Format profile : Advanced Simple@L5
Format settings, BVOP : Yes
Format settings, QPel : No
Format settings, GMC : No warppoints
Format settings, Matrix : Custom
Codec ID : V_MS/VFW/FOURCC / XVID
Codec ID/Hint : XviD
Duration : 1h 29mn
Bit rate : 935 Kbps
Width : 624 pixels
Height : 352 pixels
Display aspect ratio : 16:9
Frame rate mode : Constant
Frame rate : 23.976 fps
Color space : YUV
Chroma subsampling : 4:2:0
Bit depth : 8 bits
Scan type : Progressive
Compression mode : Lossy
Bits/(Pixel*Frame) : 0.178
Stream size : 600 MiB (86%)
Language : English
Default : Yes
Forced : No

Audio
ID : 2
Format : MPEG Audio
Format version : Version 1
Format profile : Layer 3
Mode : Joint stereo
Mode extension : MS Stereo
Muxing mode : Header stripping
Codec ID : A_MPEG/L3
Codec ID/Hint : MP3
Duration : 1h 29mn
Bit rate mode : Constant
Bit rate : 128 Kbps
Channel(s) : 2 channels
Sampling rate : 48.0 KHz
Compression mode : Lossy
Stream size : 82.1 MiB (12%)
Language : English
Default : Yes
Forced : No


Source:
credit to original movie ripper SuReNo (Thanks)[/code]

[b]IMDB Info:[/b]

[code]A down and out journey into a land of raunchy and bizarre sexual encounters. Jackson is a struggling artist with a dead end job and a terrible love life... 

Director: Dylan Reynolds
Writer: Matthew James
Stars: Akihiro Kitamura, Dallas Malloy and Matthew James 

Genres: Comedy[/code]

http://www.imdb.com/title/tt1630052/

[b]Screen Shot:[/b]

[img]image[/img]
[img]image[/img]
[img]image[/img]
[img]image[/img]
[img]image[/img]
[img]image[/img]
[18+] Nipples and Palm Trees 2012 DVDRip English [Accipiter].mkv 729.616 MB
Torrent Downloaded From Digtorrent.org.txt 346 B
Torrent downloaded from souravfile torrents on BTScene.eu.txt 69 B
Gathering some info...

Register and log in Isohunt and see no captcha anymore!

4000 symbols left
Hash 66A20CBE6736D2B96E3117D680AC928C1B10D6CB

Related torrents for "[18+] Nipples and Palm Trees 2012 DVDRip English [Accipiter]"

Torrent search:

dvdrip english 2012