imdb
rating

6.6
John Carter

John Carter (2012)

Action, Adventure, Fantasy, Science Fiction

Full description
quality   dvdrip telesync dvd bd fullhd

John Carter[2012]BRRip XviD

Size 732.596 MB   4 seeders     Added 2012-12-17 23:40:39

Stream torrent
Starting‥ You need BitLord! Get it from BitLord.com
To download or stream you need BitLord. Visit them at BitLord.com
[size=200][color=orange]John Carter of Mars (2012)[/color][/size]

[img]image[/img]

[img]image[/img]

From filmmaker Andrew Stanton comes John Carter-a sweeping action-adventure set on the mysterious and exotic planet of Barsoom (Mars). John Carter is based on a classic novel by Edgar Rice Burroughs, whose highly imaginative adventures served as inspiration for many filmmakers, both past and present. The film tells the story of war-weary, former military captain John Carter (Taylor Kitsch), who is inexplicably transported to Mars where he becomes reluctantly embroiled in a conflict of epic proportions amongst the inhabitants of the planet, including Tars Tarkas (Willem Dafoe) and the captivating Princess Dejah Thoris (Lynn Collins). In a world on the brink of collapse, Carter rediscovers his humanity when he realizes that the survival of Barsoom and its people rests in his hands. -- (C) Walt Disney

PG-13, 1 hr. 58 min.

Action & Adventure, Horror, Kids & Family, Science Fiction & Fantasy

Directed By: Andrew Stanton

Written By: Andrew Stanton, Mark Andrews, Michael Chabon, Edgar Rice Burroughs

In Theaters: Mar 9, 2012 Wide

On DVD: Jun 5, 2012

US Box Office:$73.1M

Walt Disney Pictures

[img]image[/img]

General
Complete name : John Carter[2012]BRRip XviD.avi
Format : AVI
Format/Info : Audio Video Interleave
File size : 699 MiB
Duration : 2h 12mn
Overall bit rate : 740 Kbps
Writing library : VirtualDub build 32842/release
Copyright : SaM

Video
ID : 0
Format : MPEG-4 Visual
Format profile : Advanced Simple@L5
Format settings, BVOP : 3
Format settings, QPel : No
Format settings, GMC : No warppoints
Format settings, Matrix : Default (H.263)
Muxing mode : Packed bitstream
Codec ID : XVID
Codec ID/Hint : XviD
Duration : 2h 12mn
Bit rate : 618 Kbps
Width : 608 pixels
Height : 256 pixels
Display aspect ratio : 2.40:1
Frame rate : 23.976 fps
Color space : YUV
Chroma subsampling : 4:2:0
Bit depth : 8 bits
Scan type : Progressive
Compression mode : Lossy
Bits/(Pixel*Frame) : 0.166
Stream size : 584 MiB (84%)
Writing library : XviD 64

Audio
ID : 1
Format : MPEG Audio
Format version : Version 1
Format profile : Layer 3
Mode : Joint stereo
Mode extension : MS Stereo
Codec ID : 55
Codec ID/Hint : MP3
Duration : 2h 12mn
Bit rate mode : Constant
Bit rate : 112 Kbps
Channel(s) : 2 channels
Sampling rate : 48.0 KHz
Compression mode : Lossy
Stream size : 106 MiB (15%)
Alignment : Split accross interleaves
Interleave, duration : 42 ms (1.00 video frame)
Interleave, preload duration : 500 ms
Writing library : LAME3.98r
Encoding settings : -m j -V 4 -q 3 -lowpass 15.6 -b 112

[img]image[/img]

[img]image[/img]

[url="http://www.kqzyfj.com/je116shqnhp4B676AAC465EAA57E"]Buy Toast 11 Pro and SAVE $30 Instantly Use Coupon Code: 30OFFT10PRO[/url][img]//kastatic.com/images/blank.gif[/img]
DarkNova.nfo 5.054 KB
DarkNova.png 10.9 KB
John Carter[2012]BRRip XviD.avi 732.513 MB
Gathering some info...

Register and log in Isohunt and see no captcha anymore!

4000 symbols left
Hash 07935AACEFAC9351ABB01F68C4E35C278A75304F

Related torrents for "John Carter[2012]BRRip XviD"

Torrent search:

2012 bd