imdb
rating

6.1
Mission: Impossible II

Mission: Impossible II (2000)

Action, Adventure, Thriller

Full description
quality   hd dvdrip x264 bd h264 fullhd

Mission azaad (2000) 1CD Dvd rip x264 Ac-3 Ramukaka ExDR

Size 730.463 MB   2 seeders     Added 2012-12-18 16:53:53

Stream torrent
Starting‥ You need BitLord! Get it from BitLord.com
To download or stream you need BitLord. Visit them at BitLord.com
[color=green][size=7][font=Impact][i][b]Mission azaad (2000) in hindi dual audio 1CD Dvd Rip x264 Ac-3 Ramukaka [ExDR][/b][/i][/font][/size][/color]

[img]image[/img]

[img]image[/img]


Format : Matroska
Format version : Version 4 / Version 2
File size : 697 MiB
Duration : 2h 28mn
Overall bit rate : 655 Kbps
Movie name : ExDR
Encoded date : UTC 2010-02-22 21:41:31
Writing application : mkvmerge v5.9.0 ('On The Loose') built on Dec 9 2012 15:37:01
Writing library : libebml v1.3.0 + libmatroska v1.4.0

Video
ID : 1
Format : AVC
Format/Info : Advanced Video Codec
Format profile : High@L2.1
Format settings, CABAC : Yes
Format settings, ReFrames : 4 frames
Muxing mode : Header stripping
Codec ID : V_MPEG4/ISO/AVC
Duration : 2h 28mn
Bit rate : 590 Kbps
Width : 600 pixels
Height : 302 pixels
Display aspect ratio : 1.987
Frame rate mode : Constant
Frame rate : 25.000 fps
Color space : YUV
Chroma subsampling : 4:2:0
Bit depth : 8 bits
Scan type : Progressive
Bits/(Pixel*Frame) : 0.130
Stream size : 615 MiB (88%)
Writing library : x264

Audio
ID : 2
Format : AC-3
Format/Info : Audio Coding 3
Mode extension : CM (complete main)
Format settings, Endianness : Big
Muxing mode : Header stripping
Codec ID : A_AC3
Duration : 2h 28mn
Bit rate mode : Constant
Bit rate : 64.0 Kbps
Channel(s) : 1 channel
Channel positions : Front: C
Sampling rate : 44.1 KHz
Bit depth : 16 bits
Compression mode : Lossy
Stream size : 68.0 MiB (10%)
Default : Yes
Forced : No

[img]image[/img]

[img]image[/img]

[img]image[/img]

[img]image[/img]

[img]image[/img]

[img]image[/img]

[img]image[/img]
		
Mission azaad (2000) 1CD Dvd rip x264 Ac-3 Ramukaka [ExDR]..mkv 730.463 MB
Gathering some info...

Register and log in Isohunt and see no captcha anymore!

4000 symbols left
Hash 97C05A97B0D7A8744ABA14242B6CA2BDC855E687

Related torrents for "Mission azaad (2000) 1CD Dvd rip x264 Ac-3 Ramukaka ExDR"

Torrent search:

2000 x264