imdb
rating

7.9
Chicago Fire

Chicago Fire (2012)

Drama

Full description

Chicago Fire 2012 S01E05 TVRip XviD-RoR [Lektor PL]

Size 367.36 MB   1 seeders     Added 2012-12-18 19:41:05

Stream torrent
Starting‥ You need BitLord! Get it from 1BitLord.com
To download or stream you need BitLord. Visit them at BitLord.com
Tytuł: ..:: Chicago Fire ::..

Produkcja: USA
Gatunek: Akcja, Dramat
Data premiery: 10.10.2012 - season 1
Reżyseria: Jeffrey Nachmanoff
Zdjęcia: Lisa Wiegand
Stacja telewizyjna: NBC
Czas trwania odcinka: 45 min.
http://www.filmweb.pl/serial/Chicago+Fire-2012-647835
http://www.nbc.com/chicago-fire/
Napisy PL: http://grupahatak.pl/ oraz: http://napisy24.pl/katalog/

O B S A D A:

Taylor Kinney ... Kelly Severide
Jesse Spencer ... Matthew Casey
Monica Raymund ... Gabriela Dawson
Eamonn Walker ... Walter Boden
David Eigenberg ... Christopher Herrmann
Charlie Barnett ... Peter Mills
Mo Gallini ... Joe Vargas
Lauren German ... Leslie Shay
Christian Stolte ... Mouch
Teri Reeves ... Hallie Casey

O P I S S E R I A L U:

Żadna praca nie jest bardziej stresująca, niebezpieczna, czy ekscytująca niż strażaków - członków Oddziału Ratunkowego i sanitariuszy z Chicago Firehouse 51. Są to odważni mężczyźni i kobiety, którzy stają oko w oko z niebezpieczeństwem, reagują, gdy wszyscy inni boją się podjąć działanie. Jednak ogromne obowiązki w pracy odbijają piętno na ich życiu osobistym. Gdy tragedia spotyka jednego z członków zespołu, w powietrzu unosi się sporo poczucia winy i żalu. Porucznik Matthew Casey (Jesse Spencer) stara się pracować normalnie, lecz nie może porozumieć się z porucznikiem Kelly Severidem (Taylor Kinney), z Oddziału Ratunkowego, z którym wzajemnie obwiniają się o śmierć jednego z członków zespołu. Gdy jednak zachodzi wyższa konieczność, są w stanie zakopać wojenny topór i stanąć na wysokości zadania, ratując życie potrzebującym pomocy.

Chicago Fire 2012 S01E05 TVRip XviD-RoR [Lektor PL].avi
Format : AVI
Format/Info : Audio Video Interleave
File size : 350 MiB
Duration : 40mn 58s
Overall bit rate : 1 195 Kbps
Writing application : VirtualDubMod 1.5.10.2 (build 2540/release)
Writing library : VirtualDubMod build 2540/release

Video
ID : 0
Format : MPEG-4 Visual
Format profile : Advanced Simple@L5
Format settings, BVOP : 2
Format settings, QPel : No
Format settings, GMC : No warppoints
Format settings, Matrix : Default (H.263)
Muxing mode : Packed bitstream
Codec ID : XVID
Codec ID/Hint : XviD
Duration : 40mn 58s
Bit rate : 1 058 Kbps
Width : 624 pixels
Height : 352 pixels
Display aspect ratio : 16:9
Frame rate : 25.000 fps
Color space : YUV
Chroma subsampling : 4:2:0
Bit depth : 8 bits
Scan type : Progressive
Compression mode : Lossy
Bits/(Pixel*Frame) : 0.193
Stream size : 310 MiB (88%)
Writing library : XviD 64

Audio
ID : 1
Format : MPEG Audio
Format version : Version 1
Format profile : Layer 3
Codec ID : 55
Codec ID/Hint : MP3
Duration : 40mn 58s
Bit rate mode : Constant
Bit rate : 128 Kbps
Channel(s) : 2 channels
Sampling rate : 48.0 KHz
Compression mode : Lossy
Stream size : 37.5 MiB (11%)
Alignment : Aligned on interleaves
Interleave, duration : 40 ms (1.00 video frame)
Interleave, preload duration : 504 ms
Chicago Fire 2012 S01E05 TVRip XviD-RoR [Lektor PL].avi 367.36 MB
Gathering some info...

Register and log in Isohunt and see no captcha anymore!

4000 symbols left
Hash CC2B38BC4986C9EA621CBFED57DF16EC1A64AE09

Related torrents for "Chicago Fire 2012 S01E05 TVRip XviD-RoR [Lektor PL]"

Torrent search:

season 01 hdtv episode 05 2012