imdb
rating

4.7
Ready

Ready (2011)

Action, Comedy, Drama, Romance

Full description
quality   dvdrip hd screener x264

Bobs Burgers 309 720p XBOX360/PS3 READY

Size 405.11 MB   0 seeders     Added 2012-12-19 12:46:56

Stream torrent
Starting‥ You need BitLord! Get it from BitLord.com
To download or stream you need BitLord. Visit them at BitLord.com
309


seed

Video
ID                                       : 0
Format                                   : MPEG-4 Visual
Format profile                           : Simple@L3
Format settings, BVOP                    : No
Format settings, QPel                    : No
Format settings, GMC                     : No warppoints
Format settings, Matrix                  : Default (H.263)
Codec ID                                 : XVID
Codec ID/Hint                            : XviD
Duration                                 : 21mn 32s
Source duration                          : 21mn 32s
Bit rate                                 : 2 182 Kbps
Width                                    : 1 280 pixels
Height                                   : 720 pixels
Display aspect ratio                     : 16:9
Frame rate                               : 24.000 fps
Color space                              : YUV
Chroma subsampling                       : 4:2:0
Bit depth                                : 8 bits
Scan type                                : Progressive
Compression mode                         : Lossy
Bits/(Pixel*Frame)                       : 0.099
Stream size                              : 336 MiB (87%)
Writing library                          : XviD 63

Audio
ID                                       : 1
Format                                   : MPEG Audio
Format version                           : Version 1
Format profile                           : Layer 3
Mode                                     : Joint stereo
Codec ID                                 : 55
Codec ID/Hint                            : MP3
Duration                                 : 21mn 32s
Bit rate mode                            : Variable
Bit rate                                 : 313 Kbps
Channel(s)                               : 2 channels
Sampling rate                            : 48.0 KHz
Compression mode                         : Lossy
Stream size                              : 48.2 MiB (12%)
Alignment                                : Aligned on interleaves
Interleave, duration                     : 24 ms (0.58 video frame)
Interleave, preload duration             : 505 ms

		
BB S03E09.avi 405.11 MB
Gathering some info...

Register and log in Isohunt and see no captcha anymore!

4000 symbols left
Hash 2acbf67dd643bba6e4090cb5a13436edba410d05

Related torrents for "Bobs Burgers 309 720p XBOX360/PS3 READY"

Torrent search:

hd