imdb
rating

6.1
The Golden Compass

The Golden Compass (2007)

Adventure, Fantasy

Full description
quality   bd x264 fullhd h264 dvdrip hd

[KST VN]The Golden Compass 2007 HD [KSTE] mkv

Size 1.705 GB   4 seeders     Added 2012-12-19 17:35:05

Stream torrent
Starting‥ You need BitLord! Get it from 1BitLord.com
To download or stream you need BitLord. Visit them at BitLord.com
Eng & VNese sub


Format                                   : Matroska
Format version                           : Version 2
File size                                : 1.59 GiB
Duration                                 : 1h 53mn
Overall bit rate                         : 2 002 Kbps
Encoded date                             : UTC 2012-12-19 08:56:51
Writing application                      : mkvmerge v5.6.0 ('Kenya Kane') built on May 27 2012 16:44:04
Writing library                          : libebml v1.2.3 + libmatroska v1.3.0

Video
ID                                       : 1
Format                                   : AVC
Format/Info                              : Advanced Video Codec
Format profile                           : High@L4.1
Format settings, CABAC                   : Yes
Format settings, ReFrames                : 4 frames
Codec ID                                 : V_MPEG4/ISO/AVC
Duration                                 : 1h 53mn
Bit rate                                 : 1 680 Kbps
Width                                    : 1 280 pixels
Height                                   : 536 pixels
Display aspect ratio                     : 2.40:1
Frame rate mode                          : Constant
Frame rate                               : 25.000 fps
Color space                              : YUV
Chroma subsampling                       : 4:2:0
Bit depth                                : 8 bits
Scan type                                : Progressive
Bits/(Pixel*Frame)                       : 0.098
Stream size                              : 1.30 GiB (82%)
Writing library                          : x264 core 125 r2200 999b753


Audio
ID                                       : 2
Format                                   : AC-3
Format/Info                              : Audio Coding 3
Mode extension                           : CM (complete main)
Format settings, Endianness              : Big
Codec ID                                 : A_AC3
Duration                                 : 1h 53mn
Bit rate mode                            : Constant
Bit rate                                 : 320 Kbps
Channel(s)                               : 2 channels
Channel positions                        : Front: L R
Sampling rate                            : 44.1 KHz
Bit depth                                : 16 bits
Compression mode                         : Lossy
Stream size                              : 260 MiB (16%)
Default                                  : Yes
Forced                                   : No

		
[KST.VN]The.Golden.Compass.2007.HD.[KSTE].mkv 1.705 GB
Gathering some info...

Register and log in Isohunt and see no captcha anymore!

4000 symbols left
Hash 9729C27FBD48D3B512555335476FDF445E99C880

Related torrents for "[KST VN]The Golden Compass 2007 HD [KSTE] mkv"

Torrent search:

2007 hd