The Twilight Saga Breaking Dawn Part 2 2012 FRENCH DvDrip Xvid-VOiCE

Size 776.23 MB   0 seeders     Added 2012-12-19 17:37:17

To download or stream you need BitLord. Visit them at BitLord.com
Twilight.Chapitre.5.Révélation.2ème.partie.2012.FRENCH.DVDRip.XViD

IMDB: 
 http://www.imdb.com/title/tt1673434/


STATS:

Video
ID                               : 0
Format                           : MPEG-4 Visual
Format profile                   : Advanced Simple@L5
Format settings, BVOP            : 2
Format settings, QPel            : No
Format settings, GMC             : No warppoints
Format settings, Matrix          : Default (MPEG)
Muxing mode                      : Packed bitstream
Codec ID                         : XVID
Codec ID/Hint                    : XviD
Duration                         : 115 min
Bit rate                         : 986 Kbps
Width                            : 720 pixels
Height                           : 320 pixels
Display aspect ratio             : 2.25:1
Frame rate                       : 29.970 fps
Color space                      : YUV
Chroma subsampling               : 4:2:0
Bit depth                        : 8 bits
Scan type                        : Progressive
Compression mode                 : Lossy
Bits/(Pixel*Frame)               : 0.243
Stream size                      : 740 MiB 
Writing library                  : XviD 64

Audio

Format                           : MPEG Audio
Format version                   : Version 1
Format profile                   : Layer 3
Mode                             : Joint stereo
Mode extension                   : MS Stereo
Codec ID                         : 55
Codec ID/Hint                    : MP3
Duration                         : 115 min
Bit rate mode                    : Constant
Bit rate                         : 128 Kbps
Channel(s)                       : 2 channels
Sampling rate                    : 48.0 KHz
Compression mode                 : Lossy
Stream size                      : 56 MiB (7%)
Alignment                        : Split accross interleaves
Interleave, duration             : 33 ms (1.00 video frame)
Interleave, preload duration     : 500 ms-------------------------------------Torrent downloaded from http://thepiratebay.se
Screenshots/screenshot 1.jpg 72.649 KB
Screenshots/screenshot 2.jpg 49.534 KB
Screenshots/screenshot 3.jpg 43.257 KB
Gathering some info...

Register and log in Isohunt and see no captcha anymore!

4000 symbols left
Hash 33436B809073EDAD8597313F6D883424C800E122

Related torrents for "The Twilight Saga Breaking Dawn Part 2 2012 FRENCH DvDrip Xvid-VOiCE"

Torrent search:

french 2012