imdb
rating

7.0
Jack Reacher

Jack Reacher (2012)

Crime, Drama, Thriller

Full description
quality   telesync dvdrip dvd x264 hd bd

Jack Reacher 2012 DVDRip XviD-5rFF

Size 728.746 MB   0 seeders     Added 2012-12-19 18:08:39

Stream torrent
Starting‥ You need BitLord! Get it from 1BitLord.com
To download or stream you need BitLord. Visit them at BitLord.com
\r\nVideo\r\nID : 0\r\nFormat : MPEG-4 Visual\r\nFormat profile : Advanced Simple@L5\r\nFormat settings, BVOP : Yes\r\nFormat settings, QPel : No\r\nFormat settings, GMC : No warppoints\r\nFormat settings, Matrix : Default (H.263)\r\nCodec ID : XVID\r\nCodec ID/Hint : XviD\r\nDuration : 2h 4mn\r\nBit rate : 996 Kbps\r\nWidth : 640 pixels\r\nHeight : 280 pixels\r\nDisplay aspect ratio : 2.25:1\r\nFrame rate : 25.000 fps\r\nColor space : YUV\r\nChroma subsampling : 4:2:0\r\nBit depth : 8 bits\r\nScan type : Progressive\r\nBits/(Pixel*Frame) : 0.222\r\nStream size : 590 MiB (83%)\r\nWriting library : XviD 1.2.1 (UTC 2008-12-04)\r\n\r\nAudio\r\nID : 1\r\nFormat : AC-3\r\nFormat/Info : Audio Coding 3\r\nMode extension : CM (complete main)\r\nCodec ID : 2000\r\nDuration : 2h 4mn\r\nBit rate mode : Constant\r\nBit rate : 192 Kbps\r\nChannel(s) : 2 channels\r\nChannel positions : Front: L R\r\nSampling rate : 48.0 KHz\r\nBit depth : 16 bits\r\nStream size : 172 MiB (16%)
Jack Reacher 2012 DVDRip XviD-5rFF/info.nfo 5.215 KB
Jack Reacher 2012 DVDRip XviD-5rFF/Jack Reacher 2012 DVDRip XviD-5rFF.wmv 728.669 MB
Jack Reacher 2012 DVDRip XviD-5rFF/READ this before playing the Video.txt 5.748 KB
Gathering some info...

Register and log in Isohunt and see no captcha anymore!

4000 symbols left
Hash ed8584d4fc757e59d9771abe7b65c5a2f8bd0dc2

Related torrents for "Jack Reacher 2012 DVDRip XviD-5rFF"

Torrent search:

dvdrip 2012