imdb
rating

5.5
The Twilight Saga: Breaking Dawn - Part 2

The Twilight Saga: Breaking Dawn - Part 2 (2012)

Adventure, Drama, Fantasy, Romance

Full description
quality   dvdrip x264 hd bd screener

The Twilight Saga Breaking Dawn Part 2 2012 FRENCH DvDrip Xvid-UNiQUE

Size 776.23 MB   0 seeders     Added 2012-12-20 02:13:42

Stream torrent
Starting‥ You need BitLord! Get it from BitLord.com
10
To download or stream you need BitLord. Visit them at BitLord.com
Twilight.Chapitre.5.Révélation.2ème.partie.2012.FRENCH.DVDRip.XViD\r\n\r\nIMDB: \r\n\r\nhttp://www.imdb.com/title/tt1673434/\r\n\r\n\r\nSTATS:\r\n\r\nVideo\r\nID                               : 0\r\nFormat                           : MPEG-4 Visual\r\nFormat profile                   : Advanced Simple@L5\r\nFormat settings, BVOP            : 2\r\nFormat settings, QPel            : No\r\nFormat settings, GMC             : No warppoints\r\nFormat settings, Matrix          : Default (MPEG)\r\nMuxing mode                      : Packed bitstream\r\nCodec ID                         : XVID\r\nCodec ID/Hint                    : XviD\r\nDuration                         : 115 min\r\nBit rate                         : 986 Kbps\r\nWidth                            : 720 pixels\r\nHeight                           : 320 pixels\r\nDisplay aspect ratio             : 2.25:1\r\nFrame rate                       : 29.970 fps\r\nColor space                      : YUV\r\nChroma subsampling               : 4:2:0\r\nBit depth                        : 8 bits\r\nScan type                        : Progressive\r\nCompression mode                 : Lossy\r\nBits/(Pixel*Frame)               : 0.243\r\nStream size                      : 740 MiB \r\nWriting library                  : XviD 64\r\n\r\nAudio\r\n\r\nFormat                           : MPEG Audio\r\nFormat version                   : Version 1\r\nFormat profile                   : Layer 3\r\nMode                             : Joint stereo\r\nMode extension                   : MS Stereo\r\nCodec ID                         : 55\r\nCodec ID/Hint                    : MP3\r\nDuration                         : 115 min\r\nBit rate mode                    : Constant\r\nBit rate                         : 128 Kbps\r\nChannel(s)                       : 2 channels\r\nSampling rate                    : 48.0 KHz\r\nCompression mode                 : Lossy\r\nStream size                      : 56 MiB (7%)\r\nAlignment                        : Split accross interleaves\r\nInterleave, duration             : 33 ms (1.00 video frame)\r\nInterleave, preload duration     : 500 ms\r\n
The.Twilight.Saga.Breaking.Dawn.Part.2.2012.FRENCH.DvDrip.Xvid-UNiQUE/The.Twilight.Saga.Breaking.Dawn.Part.2.2012.FRENCH.DvDrip.Xvid-UNiQUE.rar 775.947 MB
The.Twilight.Saga.Breaking.Dawn.Part.2.2012.FRENCH.DvDrip.Xvid-UNiQUE/Screenshots/screenshot 1.jpg 72.649 KB
The.Twilight.Saga.Breaking.Dawn.Part.2.2012.FRENCH.DvDrip.Xvid-UNiQUE/Screenshots/screenshot 2.jpg 49.534 KB
Gathering some info...

Register and log in Isohunt and see no captcha anymore!

4000 symbols left
Hash 1c90fe3fe5296d9df68f51d25c1dc9acf85b8b50

Related torrents for "The Twilight Saga Breaking Dawn Part 2 2012 FRENCH DvDrip Xvid-UNiQUE"

Torrent search:

dvdrip french 2012