imdb
rating

7.9
The Hobbit: An Unexpected Journey

The Hobbit: An Unexpected Journey (2012)

Action, Adventure, Fantasy

Full description

The Hobbit An Unexpected Journey 2012 FRENCH DvDrip Xvid-WiDE

Size 777.116 MB   0 seeders     Added 2012-12-20 02:12:14

Stream torrent
Starting‥ You need BitLord! Get it from BitLord.com
To download or stream you need BitLord. Visit them at BitLord.com
The.Hobbit.An.Unexpected.Journey.2012.FRENCH.DVDRip.XViD\r\n\r\nIMDB: \r\n\r\nhttp://www.imdb.com/title/tt0903624/\r\n\r\nSTATS:\r\n\r\nVideo\r\nID                               : 0\r\nFormat                           : MPEG-4 Visual\r\nFormat profile                   : Advanced Simple@L5\r\nFormat settings, BVOP            : 2\r\nFormat settings, QPel            : No\r\nFormat settings, GMC             : No warppoints\r\nFormat settings, Matrix          : Default (MPEG)\r\nMuxing mode                      : Packed bitstream\r\nCodec ID                         : XVID\r\nCodec ID/Hint                    : XviD\r\nDuration                         : 169 min\r\nBit rate                         : 986 Kbps\r\nWidth                            : 720 pixels\r\nHeight                           : 320 pixels\r\nDisplay aspect ratio             : 2.25:1\r\nFrame rate                       : 29.970 fps\r\nColor space                      : YUV\r\nChroma subsampling               : 4:2:0\r\nBit depth                        : 8 bits\r\nScan type                        : Progressive\r\nCompression mode                 : Lossy\r\nBits/(Pixel*Frame)               : 0.243\r\nStream size                      : 740 MiB \r\nWriting library                  : XviD 64\r\n\r\nAudio\r\n\r\nFormat                           : MPEG Audio\r\nFormat version                   : Version 1\r\nFormat profile                   : Layer 3\r\nMode                             : Joint stereo\r\nMode extension                   : MS Stereo\r\nCodec ID                         : 55\r\nCodec ID/Hint                    : MP3\r\nDuration                         : 169 min\r\nBit rate mode                    : Constant\r\nBit rate                         : 128 Kbps\r\nChannel(s)                       : 2 channels\r\nSampling rate                    : 48.0 KHz\r\nCompression mode                 : Lossy\r\nStream size                      : 56 MiB (7%)\r\nAlignment                        : Split accross interleaves\r\nInterleave, duration             : 33 ms (1.00 video frame)\r\nInterleave, preload duration     : 500 ms\r\n
The.Hobbit.An.Unexpected.Journey.2012.FRENCH.DvDrip.Xvid-WiDE/The.Hobbit.An.Unexpected.Journey.2012.FRENCH.DvDrip.Xvid-WiDE.rar 775.947 MB
The.Hobbit.An.Unexpected.Journey.2012.FRENCH.DvDrip.Xvid-WiDE/Screenshots/screenshot 1.jpg 269.693 KB
The.Hobbit.An.Unexpected.Journey.2012.FRENCH.DvDrip.Xvid-WiDE/Screenshots/screenshot 2.jpg 258.234 KB
Gathering some info...

Register and log in Isohunt and see no captcha anymore!

4000 symbols left
Hash c43b85ce640d509cd0f806c16c0bb6e40c79f02a

Related torrents for "The Hobbit An Unexpected Journey 2012 FRENCH DvDrip Xvid-WiDE"

Torrent search:

dvdrip french 2012