NarutoShippuudenEpisodes1to16MangaEdit mp4

Size 975.849 MB   4 seeders     Added 2012-12-20 14:38:23

Stream torrent
Starting‥ You need BitLord! Get it from BitLord.com
To download or stream you need BitLord. Visit them at BitLord.com
I cut episodes 1-16 of Naruto Shippuuden together so that it more accurately follows the manga.  

Its not perfect.  

While I have striven to make this contiguous, I'm still new to video editing and there are some noticeable jumps between some scenes.

Some parts might seem odd because they are "out of anime" order, where a scene in the manga may follow all at one time, that same scene could be broken up and otherwise presented in the anime timeline.  Some stuff isn't in the manga.  I tried to keep all the fun fight scenes cut in, even if they weren't detailed in the manga.  In the same sense I tried to remove any extraneous backstory or flashbacks, because we've all seen the show and know the backstory...besides the fact that its already over 4hrs long.  Some parts flow better in the anime presentation.  

One key thing you should notice is that most of the fight scenes are much more coherent and do not jump back and forth between different battles.  


Format                                   : MPEG-4
Format profile                           : Base Media / Version 2
Codec ID                                 : mp42
File size                                : 931 MiB
Duration                                 : 4h 9mn
Overall bit rate mode                    : Variable
Overall bit rate                         : 522 Kbps
Encoded date                             : UTC 2012-12-20 04:25:06

Video
ID                                       : 1
Format                                   : AVC
Format/Info                              : Advanced Video Codec
Format profile                           : High@L3.0
Format settings, CABAC                   : Yes
Format settings, ReFrames                : 3 frames
Codec ID                                 : avc1
Codec ID/Info                            : Advanced Video Coding
Duration                                 : 4h 9mn
Source duration                          : 4h 9mn
Bit rate                                 : 393 Kbps
Width                                    : 640 pixels
Height                                   : 480 pixels
Display aspect ratio                     : 4:3
Frame rate mode                          : Variable
Frame rate                               : 23.976 fps
Minimum frame rate                       : 23.976 fps
Maximum frame rate                       : 24.000 fps
Standard                                 : NTSC
Color space                              : YUV
Chroma subsampling                       : 4:2:0
Bit depth                                : 8 bits
Scan type                                : Progressive
Bits/(Pixel*Frame)                       : 0.053
Stream size                              : 700 MiB (75%)
Source stream size                       : 700 MiB (75%)
Language                                 : English
Encoded date                             : UTC 2012-12-20 04:25:06

Audio
ID                                       : 2
Format                                   : AAC
Format/Info                              : Advanced Audio Codec
Format profile                           : LC
Codec ID                                 : 40
Duration                                 : 4h 9mn
Source duration                          : 4h 9mn
Bit rate mode                            : Variable
Bit rate                                 : 125 Kbps
Maximum bit rate                         : 211 Kbps
Channel(s)                               : 2 channels
Channel positions                        : Front: L R
Sampling rate                            : 48.0 KHz
Compression mode                         : Lossy
Stream size                              : 223 MiB (24%)
		
NarutoShippuudenEpisodes1to16MangaEdit.mp4 975.849 MB
Gathering some info...

Register and log in Isohunt and see no captcha anymore!

4000 symbols left
Hash 5A1EF399C909736BA27046C6F47731E6D5F7A7E5