imdb
rating

6.5
Premium Rush

Premium Rush (2012)

Action, Crime, Thriller

Full description

Premium Rush 2012 DVDRiP XViD

Size 731.333 MB   2 seeders     Added 2012-12-20 17:20:36

Stream torrent
Starting‥ You need BitLord! Get it from BitLord.com
To download or stream you need BitLord. Visit them at BitLord.com
[b][color=orange][size=200]Premium Rush (2012)[/size][/color][/b]

[img]image[/img]

[img]image[/img]

Dodging speeding cars, crazed cabbies, open doors, and eight million cranky pedestrians is all in a day's work for Wilee (Joseph Gordon-Levitt), the best of New York's agile and aggressive bicycle messengers. It takes a special breed to ride the fixie - super lightweight, single-gear bikes with no brakes and riders who are equal part skilled cyclists and suicidal nutcases who risk becoming a smear on the pavement every time they head into traffic. But a guy who's used to putting his life on the line is about to get more than even he is used to when a routine delivery turns into a life or death chase through the streets of Manhattan. When Wilee picks up his last envelope of the day on a premium rush run, he discovers this package is different. This time, someone is actually trying to kill him. 

PG-13, 1 hr. 30 min.

Drama, Action & Adventure, Mystery & Suspense

Directed By: David Koepp

Written By: David Koepp, John Kamps

In Theaters: Aug 24, 2012 Wide

On DVD: Dec 21, 2012

US Box Office:$20.3M

Columbia Pictures

[img]image[/img]

General 
Complete name : Premium.Rush.2012.DVDRiP.XViD 
Format : AVI 
Format/Info : Audio Video Interleave 
File size : 697 MiB 
Duration : 1h 27mn 
Overall bit rate : 1 117 Kbps 
Writing application : VirtualDubMod 1.5.10.2 (build 2540/release) 
Writing library : VirtualDubMod build 2540/release 

Video 
ID : 0 
Format : MPEG-4 Visual 
Format profile : Advanced Simple@L5 
Format settings, BVOP : 2 
Format settings, QPel : No 
Format settings, GMC : No warppoints 
Format settings, Matrix : Default (MPEG) 
Codec ID : XVID 
Codec ID/Hint : XviD 
Duration : 1h 27mn 
Bit rate : 980 Kbps 
Width : 640 pixels 
Height : 272 pixels 
Display aspect ratio : 2.35:1 
Frame rate : 25.000 fps 
Color space : YUV 
Chroma subsampling : 4:2:0 
Bit depth : 8 bits 
Scan type : Progressive 
Compression mode : Lossy 
Bits/(Pixel*Frame) : 0.225 
Stream size : 611 MiB (88%) 
Writing library : XviD 1.2.1 (UTC 2008-12-04) 

Audio 
ID : 1 
Format : MPEG Audio 
Format version : Version 1 
Format profile : Layer 3 
Mode : Joint stereo 
Mode extension : MS Stereo 
Codec ID : 55 
Codec ID/Hint : MP3 
Duration : 1h 27mn 
Bit rate mode : Constant 
Bit rate : 128 Kbps 
Channel(s) : 2 channels 
Sampling rate : 48.0 KHz 
Compression mode : Lossy 
Stream size : 79.9 MiB (11%) 
Alignment : Aligned on interleaves 
Interleave, duration : 40 ms (1.00 video frame) 
Interleave, preload duration : 504 ms 
Writing library : LAME3.99r 
Encoding settings : -m j -V 4 -q 2 -lowpass 17 -b 128 

[img]image[/img]

[img]image[/img]

Get your own free [url=http://pulsedmedia.com/clients/aff.php?aff=577]Seedboxes :: Pulsed Media[/url] 
Premium Rush.srt 75.997 KB
Premium Rush.avi 731.24 MB
DarkNova.nfo 3.812 KB
Gathering some info...

Register and log in Isohunt and see no captcha anymore!

4000 symbols left
Hash 895D72FB05605B4EDA5D62027A4B1F1A122B1F6E

Related torrents for "Premium Rush 2012 DVDRiP XViD"

Torrent search:

dvdrip 2012