imdb
rating

8.7
Suits

Suits (2011)

Drama

Full description

Suits S02E05 DVBRip XviD-RoR [Lektor PL]

Size 366.975 MB   2 seeders     Added 2012-12-20 18:42:02

Stream torrent
Starting‥ You need BitLord! Get it from BitLord.com
To download or stream you need BitLord. Visit them at BitLord.com
Tytuł PL: ..:: W Garniturach ::..
Tytuł : ..:: Suits ::..

Produkcja: USA
Gatunek: Komedia, Dramat, Prawniczy
Data premiery: 2011
Reżyseria: Kevin Bray, John Scott
Zdjęcia: Jim Denault, Patrick Cady
Muzyka: Christopher Tyng
Stacja telewizyjna: USA Network
Czas trwania odcinka: 42 min.
http://www.filmweb.pl/serial/W+garniturach-2011-585726
http://www.usanetwork.com/series/suits/

O B S A D A:

Gabriel Macht ... Harvey Specter
Patrick J. Adams ... Mike Ross
Rick Hoffman ... Louis Litt
Meghan Markle ... Rachel Zane
Sarah Rafferty ... Donna
Gina Torres ... Jessica Pearson
Julie Ann Emery ... Vanessa
Natalie Gal ... Dziewczyna
Kristen Bush ... Joanna
Ivan Martin ... Victor

O P I S S E R I A L U:

Mike Ross (Patrick J. Adams) jest leniwym, lecz błyskotliwym, wyrzuconym z uniwersytetu chłopakiem, ce*censored*ącym się pamięcią fotograficzną, która pomogła mu zdać egzaminy adwokackie, nie uczęszczając do szkoły prawniczej. Harvey Specter (Gabriel Macht), jeden z najlepszych prawników na Manhattanie, zatrudnia Rossa na stanowisku jego nowego współpracownika. Jednakże musi on udawać, że ukończył studia prawnicze na Uniwersytecie Harvarda, ponieważ tego oczekuje od pracowników polityka firmy.

Suits.S02E05.DVBRip.XviD-RoR [Lektor PL].avi

Format : AVI
Format/Info : Audio Video Interleave
File size : 350 MiB
Duration : 40mn 45s
Overall bit rate mode : Variable
Overall bit rate : 1 201 Kbps
Writing application : VirtualDubMod 1.5.4.1 (build 2178/release)
Writing library : VirtualDubMod build 2178/release

Video
ID : 0
Format : MPEG-4 Visual
Format profile : Advanced Simple@L5
Format settings, BVOP : No
Format settings, QPel : No
Format settings, GMC : No warppoints
Format settings, Matrix : Custom
Codec ID : XVID
Codec ID/Hint : XviD
Duration : 40mn 45s
Bit rate : 1 077 Kbps
Width : 624 pixels
Height : 352 pixels
Display aspect ratio : 16:9
Frame rate : 25.000 fps
Color space : YUV
Chroma subsampling : 4:2:0
Bit depth : 8 bits
Scan type : Progressive
Compression mode : Lossy
Bits/(Pixel*Frame) : 0.196
Stream size : 314 MiB (90%)
Writing library : XviD 64

Audio
ID : 1
Format : MPEG Audio
Format version : Version 1
Format profile : Layer 3
Mode : Joint stereo
Mode extension : MS Stereo
Codec ID : 55
Codec ID/Hint : MP3
Duration : 40mn 45s
Bit rate mode : Variable
Bit rate : 111 Kbps
Nominal bit rate : 128 Kbps
Channel(s) : 2 channels
Sampling rate : 48.0 KHz
Compression mode : Lossy
Stream size : 32.4 MiB (9%)
Alignment : Aligned on interleaves
Interleave, duration : 24 ms (0.60 video frame)
Interleave, preload duration : 500 ms
Writing library : LAME3.98r
Encoding settings : -m j -V 4 -q 2 -lowpass 17 --abr 128
Suits.S02E05.DVBRip.XviD-RoR [Lektor PL].avi 366.975 MB
Gathering some info...

Register and log in Isohunt and see no captcha anymore!

4000 symbols left
Hash 704BD043A9F2BA154C7E0EC07BF7D619450236A0

Related torrents for "Suits S02E05 DVBRip XviD-RoR [Lektor PL]"

Torrent search:

season 02 hdtv episode 05