black sea 213 (1998) VHSRip

Size 754.057 MB   0 seeders     Added 2012-12-21 05:53:08

Stream torrent
Starting‥ You need BitLord! Get it from BitLord.com
To download or stream you need BitLord. Visit them at BitLord.com
Gabe, a photographer, his assistant, Annie, and his boss hire a ship to take them out to sea on a modeling shoot. What Gabe doesn't know is that an old friend-turned-enemy of his has indirectly lured him into the situation, and the models that were hired locally are skilled weapons handlers and dealers. The ship is on its way to meet a South African submarine to whom Dean means to sell a piece of high-tech and illegal cargo. Everything goes horribly wrong when Dean, the captain, the models and Gabe all start killing each other and they spend the rest of the film trying to survive

MediaInfo:
General
Complete name                            : D:Black Sea 213Black_Sea_213.avi
Format                                   : AVI
Format/Info                              : Audio Video Interleave
File size                                : 719 MiB
Duration                                 : 1h 22mn
Overall bit rate                         : 1 213 Kbps
Writing application                      : VirtualDubMod 1.5.4.1 (build 2178/release)
Writing library                          : VirtualDubMod build 2178/release

Video
ID                                       : 0
Format                                   : MPEG-4 Visual
Format profile                           : Advanced Simple@L5
Format settings, BVOP                    : 1
Format settings, QPel                    : No
Format settings, GMC                     : No warppoints
Format settings, Matrix                  : Custom
Codec ID                                 : XVID
Codec ID/Hint                            : XviD
Duration                                 : 1h 22mn
Bit rate                                 : 950 Kbps
Width                                    : 720 pixels
Height                                   : 544 pixels
Display aspect ratio                     : 4:3
Frame rate                               : 23.976 fps
Color space                              : YUV
Chroma subsampling                       : 4:2:0
Bit depth                                : 8 bits
Scan type                                : Progressive
Compression mode                         : Lossy
Bits/(Pixel*Frame)                       : 0.101
Stream size                              : 563 MiB (78%)
Writing library                          : XviD 64

Audio
ID                                       : 1
Format                                   : MPEG Audio
Format version                           : Version 1
Format profile                           : Layer 2
Codec ID                                 : 50
Duration                                 : 1h 22mn
Bit rate mode                            : Constant
Bit rate                                 : 256 Kbps
Channel(s)                               : 2 channels
Sampling rate                            : 48.0 KHz
Compression mode                         : Lossy
Stream size                              : 152 MiB (21%)
Alignment                                : Aligned on interleaves
Interleave, duration                     : 83 ms (2.00 video frames)
Interleave, preload duration             : 504 ms

		
Black_Sea_213.avi 754.057 MB
Gathering some info...

Register and log in Isohunt and see no captcha anymore!

4000 symbols left
Hash E1B8AC0A1E4BDDB07D8F29AAD59AAFAB389AEE1F