Toy Mountain Christmas Special

Toy Mountain Christmas Special (2004)

Children

Full description

The True Meaning of Christmas Specials

Size 730.976 MB   0 seeders     Added 2012-12-21 08:55:31

Stream torrent
Starting‥ You need BitLord! Get it from 1BitLord.com
To download or stream you need BitLord. Visit them at BitLord.com
The True Meaning of Christmas Specials is a Canadian television Christmas special, hosted by Dave Foley. It was first broadcast on CBC Television on December 22, 2002.


Video
ID                                       : 0
Format                                   : MPEG-4 Visual
Format settings, BVOP                    : No
Format settings, QPel                    : No
Format settings, GMC                     : No warppoints
Format settings, Matrix                  : Default (MPEG)
Codec ID                                 : XVID
Codec ID/Hint                            : XviD
Duration                                 : 43mn 58s
Bit rate                                 : 2 013 Kbps
Width                                    : 512 pixels
Height                                   : 384 pixels
Display aspect ratio                     : 4:3
Frame rate                               : 29.970 fps
Color space                              : YUV
Chroma subsampling                       : 4:2:0
Bit depth                                : 8 bits
Scan type                                : Progressive
Compression mode                         : Lossy
Bits/(Pixel*Frame)                       : 0.342
Stream size                              : 633 MiB (91%)
Writing library                          : XviD 0.0.03 (UTC 2002-12-09)

Audio
ID                                       : 1
Format                                   : MPEG Audio
Format version                           : Version 1
Format profile                           : Layer 3
Codec ID                                 : 55
Codec ID/Hint                            : MP3
Duration                                 : 43mn 54s
Bit rate mode                            : Constant
Bit rate                                 : 192 Kbps
Channel(s)                               : 2 channels
Sampling rate                            : 44.1 KHz
Compression mode                         : Lossy
Stream size                              : 60.3 MiB (9%)
Alignment                                : Split accross interleaves
Interleave, duration                     : 33 ms (1.00 video frame)
Interleave, preload duration             : 500 ms
Writing library                          : LAME3.92 
Encoding settings                        : -m s -V 4 -q 2 -lowpass 18.7 -b 192-------------------------------------Torrent downloaded from http://thepiratebay.se
Dave Foley's The True Meaning of Christmas Specials.avi 730.976 MB
Gathering some info...

Register and log in Isohunt and see no captcha anymore!

4000 symbols left
Hash 007531A302FA83A13B27DF3361E32C602903A8C4

Related torrents for "The True Meaning of Christmas Specials"