imdb
rating

7.9
NCIS

NCIS (2003)

Action, Adventure, Crime, Drama

Full description

NCIS S10E10 HDTV Xvid-MrX

Size 396.529 MB   0 seeders     Added 2012-12-21 16:42:34

Stream torrent
Starting‥ You need BitLord! Get it from BitLord.com
To download or stream you need BitLord. Visit them at BitLord.com
   _____       ____  ___
  /     ______   /  /
 /   /  _  __      /
/    Y      | /     
____|__  /__| /___/  
        /           _/


NCIS.S10E10.HDTV.Xvid-MrX 
http://www.cbs.com/shows/ncis/


General
Complete name                            : NCIS.S10E10.HDTV.Xvid-MrX.avi
Format                                   : AVI
Format/Info                              : Audio Video Interleave
File size                                : 377 MiB
Duration                                 : 43mn 36s
Overall bit rate mode                    : Variable
Overall bit rate                         : 1 209 Kbps

Video
ID                                       : 0
Format                                   : MPEG-4 Visual
Format profile                           : Advanced Simple@L5
Format settings, BVOP                    : 1
Format settings, QPel                    : No
Format settings, GMC                     : No warppoints
Format settings, Matrix                  : Default (H.263)
Muxing mode                              : Packed bitstream
Codec ID                                 : XVID
Codec ID/Hint                            : XviD
Duration                                 : 43mn 36s
Bit rate                                 : 1 045 Kbps
Width                                    : 640 pixels
Height                                   : 352 pixels
Display aspect ratio                     : 16:9
Frame rate                               : 23.976 fps
Color space                              : YUV
Chroma subsampling                       : 4:2:0
Bit depth                                : 8 bits
Scan type                                : Progressive
Compression mode                         : Lossy
Bits/(Pixel*Frame)                       : 0.193
Stream size                              : 326 MiB (86%)
Writing library                          : XviD 1.2.1 (UTC 2008-12-04)

Audio
ID                                       : 1
Format                                   : MPEG Audio
Format version                           : Version 1
Format profile                           : Layer 3
Codec ID                                 : 55
Codec ID/Hint                            : MP3
Duration                                 : 43mn 36s
Bit rate mode                            : Variable
Bit rate                                 : 152 Kbps
Minimum bit rate                         : 32.0 Kbps
Channel(s)                               : 2 channels
Sampling rate                            : 48.0 KHz
Compression mode                         : Lossy
Stream size                              : 47.4 MiB (13%)
Alignment                                : Aligned on interleaves
Interleave, duration                     : 24 ms (0.58 video frame)
Interleave, preload duration             : 55 ms
Title                                    : NCIS.S10E10
Writing library                          : LAME3.99r
Encoding settings                        : -m s -V 4 -q 0 -lowpass 17.5 --vbr-new -b 32
		
NCIS.S10E10.HDTV.Xvid-MrX.avi 395.523 MB
NCIS.S10E10.HDTV.Xvid-MrX.png 1.004 MB
NCIS.S10E10.HDTV.Xvid-MrX.nfo 3.065 KB
Gathering some info...

Register and log in Isohunt and see no captcha anymore!

4000 symbols left
Hash E908B6D693700BAE986AB78B08121B014FA288DE

Related torrents for "NCIS S10E10 HDTV Xvid-MrX"

Torrent search:

hdtv episode 10 season 10