imdb
rating

6.2
Killing Them Softly

Killing Them Softly (2012)

Crime, Thriller

Full description
quality   dvdrip dvd screener bd

Killing Them Softly 2012 DVDRip XviD-XDR Verified

Size 719.65 MB   0 seeders     Added 2012-12-21 19:20:22

Stream torrent
Starting‥ You need BitLord! Get it from 1BitLord.com
To download or stream you need BitLord. Visit them at BitLord.com
\r\n\r\n\r\nVideo\r\nID : 0\r\nFormat : MPEG-4 Visual\r\nFormat profile : Advanced Simple@L5\r\nFormat settings, BVOP : 2\r\nFormat settings, QPel : No\r\nFormat settings, GMC : No warppoints\r\nFormat settings, Matrix : Default (H.263)\r\nMuxing mode : Packed bitstream\r\nCodec ID : XVID\r\nCodec ID/Hint : XviD\r\nDuration : 1h 21mn\r\nBit rate : 1 062 Kbps\r\nWidth : 640 pixels\r\nHeight : 336 pixels\r\nDisplay aspect ratio : 1.905\r\nFrame rate : 25.000 fps\r\nColor space : YUV\r\nChroma subsampling : 4:2:0\r\nBit depth : 8 bits\r\nScan type : Progressive\r\nCompression mode : Lossy\r\nBits/(Pixel*Frame) : 0.197\r\nStream size : 619 MiB (88%)\r\nWriting library : XviD 1.2.1 (UTC 2008-12-04)\r\n\r\nAudio\r\nID : 1\r\nFormat : MPEG Audio\r\nFormat version : Version 1\r\nFormat profile : Layer 3\r\nMode : Joint stereo\r\nMode extension : MS Stereo\r\nCodec ID : 55\r\nCodec ID/Hint : MP3\r\nDuration : 1h 21mn\r\nBit rate mode : Variable\r\nBit rate : 128 Kbps\r\nChannel(s) : 2 channels\r\nSampling rate : 48.0 KHz\r\nCompression mode : Lossy\r\nStream size : 73.2 MiB (10%)\r\nAlignment : Aligned on interleaves\r\nInterleave, duration : 24 ms (0.60 video frame)\r\nInterleave, preload duration : 128 ms\r\nWriting library : LAME3.90.3\r\n     \r\n
Killing Them Softly.2012.DVDRip.XviD-XDR/subtitles/English/subtitles.srt 47.548 KB
Killing Them Softly.2012.DVDRip.XviD-XDR/subtitles/NL/subtitles.srt 71.182 KB
Killing Them Softly.2012.DVDRip.XviD-XDR/subtitles/Polish/subtitles.srt 31.875 KB
Gathering some info...

Register and log in Isohunt and see no captcha anymore!

4000 symbols left
Hash b77a1af62608b29493cc77239c1b478c8849164f

Related torrents for "Killing Them Softly 2012 DVDRip XviD-XDR"

Torrent search:

dvdrip 2012