Burn Notice

Burn Notice (2007)

Action, Crime, Drama, Thriller

Full description

Burn Notice S06E17E18 HDTV Xvid-MrX

Size 734.862 MB   0 seeders     Added 2012-12-21 19:41:50

Stream torrent
Starting‥ You need BitLord! Get it from BitLord.com
10
To download or stream you need BitLord. Visit them at BitLord.com
_____       ____  ___
  /     ______   /  /
 /   /  _  __      /
/    Y      | /     
____|__  /__| /___/  
        /           _/


Burn.Notice.S06E17E18.HDTV.Xvid-MrX 
http://www.usanetwork.com/series/burnnotice/



General
Complete name                            : Burn.Notice.S06E17E18.HDTV.Xvid-MrX.avi
Format                                   : AVI
Format/Info                              : Audio Video Interleave
File size                                : 700 MiB
Duration                                 : 1h 22mn
Overall bit rate mode                    : Variable
Overall bit rate                         : 1 191 Kbps

Video
ID                                       : 0
Format                                   : MPEG-4 Visual
Format profile                           : Advanced Simple@L5
Format settings, BVOP                    : 1
Format settings, QPel                    : No
Format settings, GMC                     : No warppoints
Format settings, Matrix                  : Default (H.263)
Muxing mode                              : Packed bitstream
Codec ID                                 : XVID
Codec ID/Hint                            : XviD
Duration                                 : 1h 22mn
Bit rate                                 : 1 018 Kbps
Width                                    : 640 pixels
Height                                   : 352 pixels
Display aspect ratio                     : 16:9
Frame rate                               : 23.976 fps
Color space                              : YUV
Chroma subsampling                       : 4:2:0
Bit depth                                : 8 bits
Scan type                                : Progressive
Compression mode                         : Lossy
Bits/(Pixel*Frame)                       : 0.188
Stream size                              : 598 MiB (85%)
Writing library                          : XviD 1.2.1 (UTC 2008-12-04)

Audio
ID                                       : 1
Format                                   : MPEG Audio
Format version                           : Version 1
Format profile                           : Layer 3
Codec ID                                 : 55
Codec ID/Hint                            : MP3
Duration                                 : 1h 22mn
Bit rate mode                            : Variable
Bit rate                                 : 160 Kbps
Minimum bit rate                         : 32.0 Kbps
Channel(s)                               : 2 channels
Sampling rate                            : 48.0 KHz
Compression mode                         : Lossy
Stream size                              : 94.1 MiB (13%)
Alignment                                : Aligned on interleaves
Interleave, duration                     : 24 ms (0.58 video frame)
Interleave, preload duration             : 206 ms
Title                                    : Burn.Notice.S06E17E18
Writing library                          : LAME3.99r
Encoding settings                        : -m s -V 4 -q 0 -lowpass 17.5 --vbr-new -b 32
Burn.Notice.S06E17E18.HDTV.Xvid-MrX.avi 733.853 MB
Burn.Notice.S06E17E18.HDTV.Xvid-MrX.png 1.006 MB
Burn.Notice.S06E17E18.HDTV.Xvid-MrX.nfo 3.103 KB
Gathering some info...

Register and log in Isohunt and see no captcha anymore!

4000 symbols left
Hash E7B23E8A1527C1C5ED15DDC775BF0077FEC1384D

Related torrents for "Burn Notice S06E17E18 HDTV Xvid-MrX"

Torrent search:

hdtv