imdb
rating

6.2
The Last Time

The Last Time (2006)

Drama, Romance

Full description
quality   h264 hd dvdrip fullhd

David Guetta Ft. Taped Rai - Just One Last Time (h264/mp4)

Size 68.731 MB   4 seeders     Added 2012-12-22 09:54:32

Stream torrent
Starting‥ You need BitLord! Get it from BitLord.com
To download or stream you need BitLord. Visit them at BitLord.com
General

Format                         : MPEG-4
Format profile                 : Base Media
Codec ID                       : isom
File size                      : 65.5 MiB
Duration                       : 4mn 15s
Overall bit rate mode          : Variable
Overall bit rate               : 2 149 Kbps
Encoded date                   : UTC 2012-12-09 16:40:24
Tagged date                    : UTC 2012-12-09 16:40:24

Video
ID                             : 1
Format                         : AVC
Format/Info                    : Advanced Video Codec
Format profile                 : High@L3.0
Format settings, CABAC         : Yes
Format settings, ReFrames      : 2 frames
Codec ID                       : avc1
Codec ID/Info                  : Advanced Video Coding
Duration                       : 4mn 15s
Bit rate                       : 1 958 Kbps
Maximum bit rate               : 4 617 Kbps
Width                          : 720 pixels
Height                         : 480 pixels
Display aspect ratio           : 16:9
Original display aspect ratio  : 16:9
Frame rate mode                : Constant
Frame rate                     : 23.976 fps
Standard                       : NTSC
Color space                    : YUV
Chroma subsampling             : 4:2:0
Bit depth                      : 8 bits
Scan type                      : Progressive
Bits/(Pixel*Frame)             : 0.236
Stream size                    : 59.7 MiB (91%)


Audio
ID                             : 2
Format                         : AAC
Format/Info                    : Advanced Audio Codec
Format profile                 : LC
Codec ID                       : 40
Duration                       : 4mn 15s
Bit rate mode                  : Variable
Bit rate                       : 188 Kbps
Maximum bit rate               : 216 Kbps
Channel(s)                     : 2 channels
Channel positions              : Front: L R
Sampling rate                  : 44.1 KHz
Compression mode               : Lossy
Stream size                    : 5.73 MiB (9%)		
DavidGuettaFt.TapedRai-JustOneLastTime-musicvideos-hq.net.mp4 68.731 MB
Gathering some info...

Register and log in Isohunt and see no captcha anymore!

4000 symbols left
Hash 74516172F8356128CCBFFE7FE52615EF4BB5E915

Related torrents for "David Guetta Ft. Taped Rai - Just One Last Time (h264/mp4)"

Torrent search:

h264