imdb
rating

6.1
Money

Money (2016)

Crime, Thriller

Full description
quality   dvd dvdrip x264 hd bd fullhd hdtv

Catedra Urbana Ft. OMG And El Cholo - I Got The Money

Size 107.312 MB   0 seeders     Added 2012-12-22 09:54:44

Stream torrent
Starting‥ You need BitLord! Get it from BitLord.com
To download or stream you need BitLord. Visit them at BitLord.com
General

Format                         : MPEG-4
Format profile                 : Base Media
Codec ID                       : isom
File size                      : 102 MiB
Duration                       : 5mn 27s
Overall bit rate mode          : Variable
Overall bit rate               : 2 624 Kbps
Encoded date                   : UTC 2012-11-04 03:00:16
Tagged date                    : UTC 2012-11-04 03:00:16

Video
ID                             : 1
Format                         : AVC
Format/Info                    : Advanced Video Codec
Format profile                 : High@L3.0
Format settings, CABAC         : Yes
Format settings, ReFrames      : 2 frames
Codec ID                       : avc1
Codec ID/Info                  : Advanced Video Coding
Duration                       : 5mn 27s
Bit rate                       : 2 427 Kbps
Maximum bit rate               : 18.9 Mbps
Width                          : 720 pixels
Height                         : 480 pixels
Display aspect ratio           : 16:9
Original display aspect ratio  : 16:9
Frame rate mode                : Constant
Frame rate                     : 25.000 fps
Standard                       : NTSC
Color space                    : YUV
Chroma subsampling             : 4:2:0
Bit depth                      : 8 bits
Scan type                      : Progressive
Bits/(Pixel*Frame)             : 0.281
Stream size                    : 94.7 MiB (93%)


Audio
ID                             : 2
Format                         : AAC
Format/Info                    : Advanced Audio Codec
Format profile                 : LC
Codec ID                       : 40
Duration                       : 5mn 27s
Bit rate mode                  : Variable
Bit rate                       : 192 Kbps
Maximum bit rate               : 217 Kbps
Channel(s)                     : 2 channels
Channel positions              : Front: L R
Sampling rate                  : 44.1 KHz
Compression mode               : Lossy
Stream size                    : 7.51 MiB (7%)		
CatedraUrbanaFt.OMGAndElCholo-IGotTheMoney-musicvideos-hq.net.mp4 107.312 MB
Gathering some info...

Register and log in Isohunt and see no captcha anymore!

4000 symbols left
Hash F0A7DFECA5F3394FA30458AD6EF7ECE477CC2EEB

Related torrents for "Catedra Urbana Ft. OMG And El Cholo - I Got The Money"