I Hate My Teenage Daughter

I Hate My Teenage Daughter (2011)

Comedy

Full description

I Hate My Teenage Daughter S01E07 TVRip XviD-RoR [Lektor PL]

Size 210.312 MB   0 seeders     Added 2012-12-22 20:20:56

Stream torrent
Starting‥ You need BitLord! Get it from BitLord.com
To download or stream you need BitLord. Visit them at BitLord.com
Tytuł PL: ..:: Jak Ja Nie Znoszę Mojej Córki ::..
Tytuł: ..:: I Hate My Teenage Daughter ::..

Produkcja: USA
Gatunek: Komedia
Data premiery USA: 23.11.2011
Data premiery PL: 03.09.2012
Reżyseria: Andy Ackerman
Czas trwania: 20 min.

Serial opowiada o dwóch kobietach - Annie (Jaime Pressly) i Nikki (Katie Finneran), które są wieloletnimi przyjaciółkami. Bohaterki odkrywają, że ich córki są tak wredne jak dziewczyny wyżywające się na nich w młodości, więc postanawiają przywołać je do porządku.

Obsada:

Jaime Pressly ... Annie Watson
Katie Finneran ... Nikki Miller
Kristi Lauren ... Sophie
Aisha Dee ... Mackenzie
Eric Sheffer Stevens ... Matt Gutierrez
Kevin Rahm ... Jack
Chad Coleman ... Gary
Julia Ling ... Jane

I Hate My Teenage Daughter S01E07 TVRip XviD-RoR [Lektor PL].avi

Format : AVI
Format/Info : Audio Video Interleave
File size : 201 MiB
Duration : 20mn 32s
Overall bit rate : 1 365 Kbps

Video
ID : 0
Format : MPEG-4 Visual
Format profile : Advanced Simple@L5
Format settings, BVOP : 2
Format settings, QPel : No
Format settings, GMC : No warppoints
Format settings, Matrix : Default (H.263)
Codec ID : XVID
Codec ID/Hint : XviD
Duration : 20mn 32s
Bit rate : 1 224 Kbps
Width : 640 pixels
Height : 368 pixels
Display aspect ratio : 1.739
Frame rate : 25.000 fps
Color space : YUV
Chroma subsampling : 4:2:0
Bit depth : 8 bits
Scan type : Progressive
Compression mode : Lossy
Bits/(Pixel*Frame) : 0.208
Stream size : 180 MiB (90%)
Writing library : XviD 64

Audio
ID : 1
Format : MPEG Audio
Format version : Version 1
Format profile : Layer 3
Codec ID : 55
Codec ID/Hint : MP3
Duration : 20mn 32s
Source duration : 20mn 32s
Bit rate mode : Constant
Bit rate : 128 Kbps
Channel(s) : 2 channels
Sampling rate : 48.0 KHz
Compression mode : Lossy
Stream size : 18.8 MiB (9%)
Alignment : Split accross interleaves
Interleave, duration : 24 ms (0.60 video frame) [i][/i]
I Hate My Teenage Daughter S01E07 TVRip XviD-RoR [Lektor PL].avi 210.312 MB
Gathering some info...

Register and log in Isohunt and see no captcha anymore!

4000 symbols left
Hash F5319E8B3D02A79790D1D2622EF6DE5317EB5BFB

Related torrents for "I Hate My Teenage Daughter S01E07 TVRip XviD-RoR [Lektor PL]"

Torrent search:

season 01 hdtv episode 07