Zion Ft. Ken-Y And Jory - More (h264/mp4)

Size 82.188 MB   31 seeders     Added 2012-12-22 23:55:13

Stream torrent
Starting‥ You need BitLord! Get it from BitLord.com
10
To download or stream you need BitLord. Visit them at BitLord.com
General

Format                         : MPEG-4
Format profile                 : Base Media
Codec ID                       : isom
File size                      : 78.4 MiB
Duration                       : 4mn 0s
Overall bit rate mode          : Variable
Overall bit rate               : 2 739 Kbps
Encoded date                   : UTC 2012-12-09 17:26:48
Tagged date                    : UTC 2012-12-09 17:26:48

Video
ID                             : 1
Format                         : AVC
Format/Info                    : Advanced Video Codec
Format profile                 : High@L3.0
Format settings, CABAC         : Yes
Format settings, ReFrames      : 2 frames
Codec ID                       : avc1
Codec ID/Info                  : Advanced Video Coding
Duration                       : 4mn 0s
Bit rate                       : 2 543 Kbps
Maximum bit rate               : 7 679 Kbps
Width                          : 720 pixels
Height                         : 480 pixels
Display aspect ratio           : 16:9
Original display aspect ratio  : 16:9
Frame rate mode                : Constant
Frame rate                     : 23.976 fps
Standard                       : NTSC
Color space                    : YUV
Chroma subsampling             : 4:2:0
Bit depth                      : 8 bits
Scan type                      : Progressive
Bits/(Pixel*Frame)             : 0.307
Stream size                    : 72.8 MiB (93%)


Audio
ID                             : 2
Format                         : AAC
Format/Info                    : Advanced Audio Codec
Format profile                 : LC
Codec ID                       : 40
Duration                       : 4mn 0s
Bit rate mode                  : Variable
Bit rate                       : 192 Kbps
Maximum bit rate               : 217 Kbps
Channel(s)                     : 2 channels
Channel positions              : Front: L R
Sampling rate                  : 44.1 KHz
Compression mode               : Lossy
Stream size                    : 5.51 MiB (7%)-------------------------------------Torrent downloaded from http://thepiratebay.se
ZionFt.Ken-YAndJory-More-musicvideos-hq.net.mp4 82.188 MB
Gathering some info...

Register and log in Isohunt and see no captcha anymore!

4000 symbols left
Hash 57F513B617DE7FF71B79E71B1A67017E10679017